<?xml version="1.0" standalone="no"?>
<!DOCTYPE svg PUBLIC "-//W3C//DTD SVG 1.1//EN" "http://www.w3.org/Graphics/SVG/1.1/DTD/svg11.dtd" >
<svg xmlns="http://www.w3.org/2000/svg">
<defs>
  <font id="Eva-Icons" horiz-adv-x="24.2">
    <font-face font-family="Eva-Icons"
      units-per-em="24.2" ascent="24.2"
      descent="0" />
    <missing-glyph horiz-adv-x="0" />
    <glyph glyph-name="activity"
      unicode="&#xEA01;"
      horiz-adv-x="24" d="M24 24L24 0L0 0L0 24L24 24zM14.33 4H14.12A2 2 0 0 0 12.36 5.58L9.68 18L6.92 11.6A1 1 0 0 0 6 11H3A1 1 0 0 0 3 13H5.34L7.85 18.79A2 2 0 0 0 11.64 18.41L14.32 6L17.08 12.38A1 1 0 0 0 18 13H21A1 1 0 0 0 21 11H18.66L16.15 5.21A2 2 0 0 0 14.33 4z" />
    <glyph glyph-name="alert-circle"
      unicode="&#xEA02;"
      horiz-adv-x="24" d="M0 24H24V0H0V24zM12 22A10 10 0 1 1 22 12A10 10 0 0 1 12 22zM12 7A1 1 0 1 0 13 8A1 1 0 0 0 12 7zM13 11A1 1 0 0 0 11 11V16A1 1 0 0 0 13 16z" />
    <glyph glyph-name="alert-triangle"
      unicode="&#xEA03;"
      horiz-adv-x="24" d="M24 24L24 0L0 0L0 24L24 24zM22.56 7.7L14.89 20.42A3.4300000000000006 3.4300000000000006 0 0 1 9.11 20.42L1.44 7.7A3 3 0 0 1 1.39 4.7A3.37 3.37 0 0 1 4.33 3H19.67A3.37 3.37 0 0 1 22.61 4.66A3 3 0 0 1 22.56 7.7zM12 7A1 1 0 1 0 13 8A1 1 0 0 0 12 7zM13 11A1 1 0 0 0 11 11V15A1 1 0 0 0 13 15z" />
    <glyph glyph-name="archive"
      unicode="&#xEA04;"
      horiz-adv-x="24" d="M24 24L24 0L0 0L0 24L24 24zM18 21H6A3 3 0 0 1 4 15.78V6A3 3 0 0 1 7 3H17A3 3 0 0 1 20 6V15.78A3 3 0 0 1 18 21zM15 10.87A0.8700000000000001 0.8700000000000001 0 0 0 14.13 10H9.87A0.8700000000000001 0.8700000000000001 0 0 0 9 10.87V11.13A0.8700000000000001 0.8700000000000001 0 0 0 9.87 12H14.13A0.8700000000000001 0.8700000000000001 0 0 0 15 11.13zM18 17H6A1 1 0 0 0 6 19H18A1 1 0 0 0 18 17z" />
    <glyph glyph-name="arrow-back"
      unicode="&#xEA05;"
      horiz-adv-x="24" d="M24 24L24 0L0 0L0 24L24 24zM19 13H7.14L10.77 17.36A1 1 0 1 1 9.23 18.64L4.23 12.64A1.19 1.19 0 0 1 4.14 12.49C4.14 12.44 4.14 12.41 4.07 12.36A1 1 0 0 1 4 12H4A1 1 0 0 1 4.07 11.64C4.07 11.59 4.07 11.56 4.14 11.51A1.19 1.19 0 0 1 4.23 11.36L9.23 5.36A1 1 0 0 1 10 5A1 1 0 0 1 10.64 5.23A1 1 0 0 1 10.77 6.64L7.14 11H19A1 1 0 0 1 19 13z" />
    <glyph glyph-name="arrow-circle-down"
      unicode="&#xEA06;"
      horiz-adv-x="24" d="M0 24H24V0H0V24zM12 22A10 10 0 1 1 22 12A10 10 0 0 1 12 22zM15.69 10.14L12.69 7.28A0.49 0.49 0 0 0 12.54 7.18A0.54 0.54 0 0 0 12.38 7.08A0.9400000000000001 0.9400000000000001 0 0 0 11.62 7.08A1 1 0 0 0 11.29 7.29L8.29 10.29A1 1 0 0 0 9.71 11.71L11 10.41V16A1 1 0 0 0 13 16V10.34L14.31 11.59A1 1 0 0 0 15.69 10.14z" />
    <glyph glyph-name="arrow-circle-left"
      unicode="&#xEA07;"
      horiz-adv-x="24" d="M24 24L24 0L0 0L0 24L24 24zM22 12A10 10 0 1 1 12 2A10 10 0 0 1 22 12zM10.14 8.31L7.28 11.31A0.49 0.49 0 0 0 7.18 11.46A0.54 0.54 0 0 0 7.08 11.62A0.9400000000000001 0.9400000000000001 0 0 0 7.08 12.38A1 1 0 0 0 7.29 12.71L10.29 15.71A1 1 0 0 0 11.71 14.29L10.41 13H16A1 1 0 0 0 16 11H10.34L11.59 9.69A1 1 0 0 0 10.14 8.31z" />
    <glyph glyph-name="arrow-circle-right"
      unicode="&#xEA08;"
      horiz-adv-x="24" d="M0 0L0 24L24 24L24 0L0 0zM2 12A10 10 0 1 1 12 22A10 10 0 0 1 2 12zM13.86 15.69L16.72 12.69A0.49 0.49 0 0 0 16.82 12.54A0.54 0.54 0 0 0 16.92 12.38A0.9400000000000001 0.9400000000000001 0 0 0 16.92 11.62A1 1 0 0 0 16.71 11.29L13.71 8.29A1 1 0 0 0 12.29 9.71L13.59 11H8A1 1 0 0 0 8 13H13.66L12.41 14.31A1 1 0 0 0 13.86 15.69z" />
    <glyph glyph-name="arrow-circle-up"
      unicode="&#xEA09;"
      horiz-adv-x="24" d="M24 0L0 0L0 24L24 24L24 0zM12 2A10 10 0 1 1 2 12A10 10 0 0 1 12 2zM8.31 13.86L11.31 16.72A0.49 0.49 0 0 0 11.46 16.82A0.54 0.54 0 0 0 11.62 16.92A0.9400000000000001 0.9400000000000001 0 0 0 12.38 16.92A1 1 0 0 0 12.71 16.71L15.71 13.71A1 1 0 0 0 14.29 12.29L13 13.59V8A1 1 0 0 0 11 8V13.66L9.69 12.41A1 1 0 0 0 8.31 13.86z" />
    <glyph glyph-name="arrow-down"
      unicode="&#xEA0A;"
      horiz-adv-x="24" d="M0 0L0 24L24 24L24 0L0 0zM12 7A1.72 1.72 0 0 0 10.67 7.64L6.46 12.74A2.1 2.1 0 0 0 6.2 14.95A1.7599999999999998 1.7599999999999998 0 0 0 7.79 16H16.21A1.7599999999999998 1.7599999999999998 0 0 0 17.8 14.95A2.1 2.1 0 0 0 17.54 12.74L13.33 7.64A1.72 1.72 0 0 0 12 7z" />
    <glyph glyph-name="arrow-downward"
      unicode="&#xEA0B;"
      horiz-adv-x="24" d="M0 24H24V0H0V24zM18.77 10.64A1 1 0 0 1 17.36 10.77L13 7.14V19A1 1 0 0 1 11 19V7.14L6.64 10.77A1 1 0 1 1 5.36 9.23L11.36 4.23L11.51 4.14L11.64 4.07A1 1 0 0 1 12.36 4.07L12.49 4.14L12.64 4.23L18.64 9.23A1 1 0 0 1 18.77 10.64z" />
    <glyph glyph-name="arrow-forward"
      unicode="&#xEA0C;"
      horiz-adv-x="24" d="M0 0L0 24L24 24L24 0L0 0zM5 11H16.86L13.23 6.64A1 1 0 0 1 14.77 5.36L19.77 11.36A1.19 1.19 0 0 1 19.86 11.51C19.86 11.56 19.91 11.59 19.93 11.64A1 1 0 0 1 20 12H20A1 1 0 0 1 19.93 12.36C19.93 12.41 19.88 12.44 19.86 12.49A1.19 1.19 0 0 1 19.77 12.64L14.77 18.64A1 1 0 0 1 14 19A1 1 0 0 1 13.36 18.77A1 1 0 0 1 13.23 17.36L16.86 13H5A1 1 0 0 1 5 11z" />
    <glyph glyph-name="arrow-ios-back"
      unicode="&#xEA0D;"
      horiz-adv-x="24" d="M24 24L24 0L0 0L0 24L24 24zM13.83 5A1 1 0 0 0 13.05 5.37L8.22 11.37A1 1 0 0 0 8.22 12.64L13.22 18.64A1 1 0 0 0 14.76 17.36L10.29 12L14.61 6.64A1 1 0 0 0 13.83 5z" />
    <glyph glyph-name="arrow-ios-downward"
      unicode="&#xEA0E;"
      horiz-adv-x="24" d="M0 24H24V0H0V24zM12 8A1 1 0 0 0 11.36 8.23L5.36 13.23A1 1 0 1 0 6.64 14.77L12 10.29L17.36 14.61A1 1 0 0 0 18.77 14.46A1 1 0 0 0 18.63 13L12.63 8.17A1 1 0 0 0 12 8z" />
    <glyph glyph-name="arrow-ios-forward"
      unicode="&#xEA0F;"
      horiz-adv-x="24" d="M0 0L0 24L24 24L24 0L0 0zM10 5A1 1 0 0 0 9.36 5.23A1 1 0 0 0 9.23 6.64L13.71 12L9.39 17.37A1 1 0 0 0 9.54 18.78A1 1 0 0 0 11 18.63L15.83 12.63A1 1 0 0 0 15.83 11.36L10.83 5.36A1 1 0 0 0 10 5z" />
    <glyph glyph-name="arrow-ios-upward"
      unicode="&#xEA10;"
      horiz-adv-x="24" d="M24 0L0 0L0 24L24 24L24 0zM18 9A1 1 0 0 0 17.36 9.23L12 13.71L6.63 9.39A1 1 0 0 0 5.22 9.54A1 1 0 0 0 5.37 10.95L11.37 15.78A1 1 0 0 0 12.64 15.78L18.64 10.78A1 1 0 0 0 18.77 9.37A1 1 0 0 0 18 9z" />
    <glyph glyph-name="arrow-left"
      unicode="&#xEA11;"
      horiz-adv-x="24" d="M0 24H24V0H0V24zM13.54 6A2.06 2.06 0 0 0 12.24 6.46L7.14 10.67A1.7 1.7 0 0 0 7.14 13.33L12.24 17.54A2.1 2.1 0 0 0 14.45 17.8A1.7599999999999998 1.7599999999999998 0 0 0 15.5 16.21V7.79A1.7599999999999998 1.7599999999999998 0 0 0 14.45 6.2A2.23 2.23 0 0 0 13.54 6z" />
    <glyph glyph-name="arrow-right"
      unicode="&#xEA12;"
      horiz-adv-x="24" d="M24 0L0 0L0 24L24 24L24 0zM10.46 6A2.23 2.23 0 0 0 9.55 6.2A1.7599999999999998 1.7599999999999998 0 0 0 8.5 7.79V16.21A1.7599999999999998 1.7599999999999998 0 0 0 9.55 17.8A2.1 2.1 0 0 0 11.76 17.54L16.86 13.33A1.7 1.7 0 0 0 16.86 10.67L11.76 6.46A2.06 2.06 0 0 0 10.46 6z" />
    <glyph glyph-name="arrow-up"
      unicode="&#xEA13;"
      horiz-adv-x="24" d="M24 24L24 0L0 0L0 24L24 24zM16.21 8H7.79A1.7599999999999998 1.7599999999999998 0 0 0 6.2 9A2.1 2.1 0 0 0 6.46 11.21L10.67 16.31A1.7599999999999998 1.7599999999999998 0 0 0 13.33 16.31L17.54 11.21A2.1 2.1 0 0 0 17.8 9A1.7599999999999998 1.7599999999999998 0 0 0 16.21 8z" />
    <glyph glyph-name="arrow-upward"
      unicode="&#xEA14;"
      horiz-adv-x="24" d="M24 0L0 0L0 24L24 24L24 0zM5.23 13.36A1 1 0 0 1 6.64 13.23L11 16.86V5A1 1 0 0 1 13 5V16.86L17.36 13.23A1 1 0 1 1 18.64 14.77L12.64 19.77L12.49 19.86L12.36 19.93A1 1 0 0 1 11.64 19.93L11.51 19.86L11.36 19.77L5.36 14.77A1 1 0 0 1 5.23 13.36z" />
    <glyph glyph-name="arrowhead-down"
      unicode="&#xEA15;"
      horiz-adv-x="24" d="M0 24H24V0H0V24zM17.37 11.61L12 7.29L6.64 11.77A1 1 0 1 1 5.36 10.23L11.36 5.23A1 1 0 0 1 12.63 5.23L18.63 10.06A1 1 0 0 1 18.78 11.47A1 1 0 0 1 17.37 11.61zM11.36 12.23A1 1 0 0 1 12.63 12.23L18.63 17.06A1 1 0 0 1 18.78 18.47A1 1 0 0 1 17.37 18.62L12 14.29L6.64 18.77A1 1 0 0 1 5.36 17.23z" />
    <glyph glyph-name="arrowhead-left"
      unicode="&#xEA16;"
      horiz-adv-x="24" d="M24 24L24 0L0 0L0 24L24 24zM11.64 18.77A1 1 0 0 1 10.23 18.64L5.23 12.64A1 1 0 0 1 5.23 11.37L10.06 5.37A1 1 0 0 1 10.84 5A1 1 0 0 1 11.62 6.63L7.29 12L11.77 17.37A1 1 0 0 1 11.64 18.77zM14.29 12L18.77 17.37A1 1 0 0 1 17.23 18.65L12.23 12.65A1 1 0 0 1 12.23 11.38L17.06 5.38A1 1 0 0 1 17.84 5.01A1 1 0 0 1 18.62 6.64z" />
    <glyph glyph-name="arrowhead-right"
      unicode="&#xEA17;"
      horiz-adv-x="24" d="M0 0L0 24L24 24L24 0L0 0zM18.78 12.63L14 18.63A1 1 0 0 1 12.59 18.78A1 1 0 0 1 12.44 17.37L16.71 12L12.23 6.63A1 1 0 0 1 12.36 5.22A1 1 0 0 1 13 5A1 1 0 0 1 13.77 5.36L18.77 11.36A1 1 0 0 1 18.78 12.63zM7 18.63A1 1 0 0 1 5.39 17.37L9.71 12L5.23 6.64A1 1 0 0 1 5.36 5.23A1 1 0 0 1 6 5A1 1 0 0 1 6.77 5.36L11.77 11.36A1 1 0 0 1 11.77 12.63z" />
    <glyph glyph-name="arrowhead-up"
      unicode="&#xEA18;"
      horiz-adv-x="24" d="M24 0L0 0L0 24L24 24L24 0zM6.63 12.39L12 16.71L17.37 12.23A1 1 0 0 1 18 12A1 1 0 0 1 18.77 12.36A1 1 0 0 1 18.64 13.77L12.64 18.77A1 1 0 0 1 11.37 18.77L5.37 13.94A1 1 0 0 1 5.22 12.53A1 1 0 0 1 6.63 12.39zM12.64 11.77A1 1 0 0 1 11.37 11.77L5.37 6.94A1 1 0 0 1 5.22 5.53A1 1 0 0 1 6.63 5.38L12 9.71L17.37 5.23A1 1 0 0 1 18 5A1 1 0 0 1 18.77 5.36A1 1 0 0 1 18.64 6.77z" />
    <glyph glyph-name="at"
      unicode="&#xEA19;"
      horiz-adv-x="24" d="M0 24H24V0H0V24zM13 22A10 10 0 0 1 8 2.9A10.15 10.15 0 0 1 12 2A10 10 0 0 1 18.08 4.06A1 1 0 0 1 18.27 5.46A1 1 0 0 1 16.86 5.65A8 8 0 1 0 12.77 20A8.17 8.17 0 0 0 20 11.78V11.1A1.7100000000000002 1.7100000000000002 0 0 0 18.22 9.4A1.8200000000000003 1.8200000000000003 0 0 0 16.6 11.28V15.6A1 1 0 0 1 15.6 16.6A1 1 0 0 1 14.6 15.73A5 5 0 0 1 11.16 17.09A5.09 5.09 0 1 1 15.31 9A3.5999999999999996 3.5999999999999996 0 0 1 20.86 8.39A3.6700000000000004 3.6700000000000004 0 0 1 22 11.1V11.78A10.2 10.2 0 0 1 13 22zM11.18 8.91A3.0900000000000003 3.0900000000000003 0 1 0 14.27 12A3.1 3.1 0 0 0 11.18 8.91z" />
    <glyph glyph-name="attach"
      unicode="&#xEA1A;"
      horiz-adv-x="24" d="M0 24H24V0H0V24zM9.29 3H9.29A6.23 6.23 0 0 0 4.86 4.88A6 6 0 0 0 4.64 13.37L12 20.8A4.11 4.11 0 0 0 15 22A4.48 4.48 0 0 0 18.19 20.65A4.36 4.36 0 0 0 18.34 14.52L10.94 7.09A2.54 2.54 0 0 0 9.13 6.34H9.13A2.72 2.72 0 0 0 7.18 7.16A2.68 2.68 0 0 0 7.1 10.93L13.93 17.79A1 1 0 0 0 15.3 16.38L8.47 9.52A0.68 0.68 0 0 1 8.55 8.57A0.78 0.78 0 0 1 9.08 8.34H9.08A0.56 0.56 0 0 1 9.48 8.5L16.87 15.93A2.36 2.36 0 0 1 16.72 19.24A2.38 2.38 0 0 1 13.45 19.39L6.06 12A4 4 0 0 1 6.28 6.33A4.22 4.22 0 0 1 9.28 5.04A3.6700000000000004 3.6700000000000004 0 0 1 11.89 6.1L19.28 13.53A1 1 0 1 0 20.7 12.12L13.31 4.69A5.650000000000001 5.650000000000001 0 0 0 9.29 3z" />
    <glyph glyph-name="attach-2"
      unicode="&#xEA1B;"
      horiz-adv-x="24" d="M0 24H24V0H0V24zM12 2A5.86 5.86 0 0 0 6 7.7V17.87A4.24 4.24 0 0 0 10.33 22A4.24 4.24 0 0 0 14.67 17.87V7.69A2.67 2.67 0 0 0 9.34 7.69V17.08A1 1 0 0 0 10.34 18.08H10.34A1 1 0 0 0 11.34 17.08V7.69A0.67 0.67 0 0 1 12.67 7.69V17.87A2.25 2.25 0 0 1 10.33 20A2.25 2.25 0 0 1 8 17.87V7.7A3.8600000000000003 3.8600000000000003 0 0 1 12 4A3.8600000000000003 3.8600000000000003 0 0 1 16 7.7V17.87A1 1 0 1 0 18 17.87V7.7A5.86 5.86 0 0 0 12 2z" />
    <glyph glyph-name="award"
      unicode="&#xEA1C;"
      horiz-adv-x="24" d="M0 24H24V0H0V24zM19 3.25L16.69 12.25A5.94 5.94 0 0 1 18 16A6 6 0 0 1 6 16A5.94 5.94 0 0 1 7.34 12.23L5 3.25A1 1 0 0 1 6.48 2.14L11.81 5.27L17.49 2.13A0.9100000000000001 0.9100000000000001 0 0 1 18 2A1 1 0 0 1 19 3.25zM12 20A4 4 0 1 0 8 16A4 4 0 0 0 12 20z" />
    <glyph glyph-name="backspace"
      unicode="&#xEA1D;"
      horiz-adv-x="24" d="M0 24H24V0H0V24zM20.14 20H10.37A3 3 0 0 1 8.37 19.22L8.27 19.11L2.27 11.63A1 1 0 0 1 2.38 10.26L8.38 4.78A3 3 0 0 1 10.38 4H20.15A1.84 1.84 0 0 1 22 5.82V18.18A1.84 1.84 0 0 1 20.14 20zM16.71 10.71A1 1 0 0 0 16.71 9.29A1 1 0 0 0 15.29 9.29L14 10.59L12.71 9.29A1 1 0 0 0 11.29 9.29A1 1 0 0 0 11.29 10.71L12.59 12L11.29 13.29A1 1 0 0 0 12.71 14.71L14 13.41L15.29 14.71A1 1 0 0 0 16.71 13.29L15.41 12z" />
    <glyph glyph-name="bar-chart"
      unicode="&#xEA1E;"
      horiz-adv-x="24" d="M24 24L24 0L0 0L0 24L24 24zM12 20A1 1 0 0 1 11 19V4A1 1 0 0 1 13 4V19A1 1 0 0 1 12 20zM19 12A1 1 0 0 1 18 11V4A1 1 0 0 1 20 4V11A1 1 0 0 1 19 12zM5 16A1 1 0 0 1 4 15V4A1 1 0 0 1 6 4V15A1 1 0 0 1 5 16z" />
    <glyph glyph-name="bar-chart-2"
      unicode="&#xEA1F;"
      horiz-adv-x="24" d="M24 24L24 0L0 0L0 24L24 24zM12 16A1 1 0 0 1 11 15V4A1 1 0 0 1 13 4V15A1 1 0 0 1 12 16zM19 20A1 1 0 0 1 18 19V4A1 1 0 0 1 20 4V19A1 1 0 0 1 19 20zM5 12A1 1 0 0 1 4 11V4A1 1 0 0 1 6 4V11A1 1 0 0 1 5 12z" />
    <glyph glyph-name="battery"
      unicode="&#xEA20;"
      horiz-adv-x="24" d="M0 24H24V0H0V24zM15.83 18H4.17A2.31 2.31 0 0 1 2 15.57V8.43A2.31 2.31 0 0 1 4.17 6H15.83A2.31 2.31 0 0 1 18 8.43V15.57A2.31 2.31 0 0 1 15.83 18zM21 15A1 1 0 0 1 20 14V10A1 1 0 0 1 22 10V14A1 1 0 0 1 21 15z" />
    <glyph glyph-name="behance"
      unicode="&#xEA21;"
      horiz-adv-x="24" d="M0 24H24V0H0V24zM14.76 12.81A1 1 0 0 1 13.76 11.72H15.82A1 1 0 0 1 14.76 12.81zM9.49 11.7H8.26V9.76H9.26C10.26 9.76 10.7 10.09 10.7 10.76S10.24 11.7 9.49 11.7zM10.36 13.48C10.36 14.01 10.01 14.33 9.41 14.33H8.26V12.59H9.11C10 12.59 10.36 12.91 10.36 13.48zM12 22A10 10 0 1 1 22 12A10 10 0 0 1 12 22zM9.7 8.8H7V15.3H9.7C10.87 15.3 11.64 14.69 11.64 13.7A1.3999999999999997 1.3999999999999997 0 0 0 10.52 12.27V12.27A1.5200000000000002 1.5200000000000002 0 0 0 12 10.63C12 9.47 11 8.8 9.7 8.8zM13.25 14.8H16.25V14.3H13.25zM17 10.95H13.7V10.81A1.07 1.07 0 0 1 14.79 9.62A0.8999999999999999 0.8999999999999999 0 0 1 15.79 10.25H17A2 2 0 0 0 14.83 8.7A2.15 2.15 0 0 0 12.47 11V11.44A2.11 2.11 0 0 0 14.75 13.69A2.12 2.12 0 0 0 17 11.42z" />
    <glyph glyph-name="bell"
      unicode="&#xEA22;"
      horiz-adv-x="24" d="M0 24H24V0H0V24zM20.52 8.79L18.72 10.6V15.06A6.860000000000001 6.860000000000001 0 0 1 12.9 21.94A6.74 6.74 0 0 1 5.28 15.27V10.6L3.48 8.79A1.6399999999999997 1.6399999999999997 0 0 1 4.64 6H8V5.66A3.84 3.84 0 0 1 12 2A3.84 3.84 0 0 1 16 5.66V6H19.36A1.6399999999999997 1.6399999999999997 0 0 1 20.52 8.79zM14 5.66A1.8800000000000001 1.8800000000000001 0 0 0 12 4A1.8800000000000001 1.8800000000000001 0 0 0 10 5.66V6H14z" />
    <glyph glyph-name="bell-off"
      unicode="&#xEA23;"
      horiz-adv-x="24" d="M0 24H24V0H0V24zM15.88 5.29L15.29 5.88L14 7.22L13.93 7.29L6.58 14.6L5.31 15.86A5.680000000000001 5.680000000000001 0 0 1 5.31 15.27V10.6L3.51 8.79A1.6399999999999997 1.6399999999999997 0 0 1 4.64 6H8V5.66A3.84 3.84 0 0 1 12 2A3.8799999999999994 3.8799999999999994 0 0 1 16 5.22zM14 5.66A1.8800000000000001 1.8800000000000001 0 0 0 12 4A1.8800000000000001 1.8800000000000001 0 0 0 10 5.66V6H14zM7.13 19.7L8.59 18.24L18.12 8.71L20.12 6.71L20.43 6.41A1.58 1.58 0 0 1 20.88 7.01A1.62 1.62 0 0 1 20.53 8.79L18.73 10.6V15.06A6.860000000000001 6.860000000000001 0 0 1 12.9 21.94A6.71 6.71 0 0 1 7.58 20.33A6.88 6.88 0 0 1 7 19.79zM20.71 4.71L19.41 6L17.41 8L7.89 17.53L6.42 19L4.71 20.71A1 1 0 0 1 3.29 19.29L5.53 17L7.28 15.3L14.59 8L14.66 7.93L16 6.59L16.59 6L19.29 3.29A1 1 0 0 1 20.71 3.29A1 1 0 0 1 20.71 4.71z" />
    <glyph glyph-name="bluetooth"
      unicode="&#xEA24;"
      horiz-adv-x="24" d="M24 24L24 0L0 0L0 24L24 24zM13.63 12L17.63 15.79A1.14 1.14 0 0 1 17.5 17.56L12.83 20.79A1.17 1.17 0 0 1 11.62 20.87A1.15 1.15 0 0 1 11 19.87V13.67L7.81 17.67A1 1 0 0 1 6.25 16.37L9.72 12L6.22 7.57A1 1 0 0 1 6.38 6.17A1 1 0 0 1 7 6A1 1 0 0 1 7.78 6.38L11 10.44V4.15A1.16 1.16 0 0 1 12.16 3A1.16 1.16 0 0 1 12.83 3.21L17.47 6.39A1.17 1.17 0 0 1 17.96 7.24A1.15 1.15 0 0 1 17.62 8.15zM13 18.24L15.5 16.51L13 14.15zM13 5.75V9.82L15.47 7.44z" />
    <glyph glyph-name="book"
      unicode="&#xEA25;"
      horiz-adv-x="24" d="M0 24H24V0H0V24zM19 21H7A3 3 0 0 1 4 18V6A3 3 0 0 1 7 3H19A1 1 0 0 1 20 4V20A1 1 0 0 1 19 21zM7 5A1 1 0 0 0 7 7H18V5z" />
    <glyph glyph-name="book-open"
      unicode="&#xEA26;"
      horiz-adv-x="24" d="M24 0L0 0L0 24L24 24L24 0zM21 19.66A1.24 1.24 0 0 1 19.92 19.89L13 18.11V3.84L20.56 5.78A1.25 1.25 0 0 1 21.5 7V18.68A1.25 1.25 0 0 1 21 19.66zM11 18.11L4.06 19.89A1.27 1.27 0 0 1 3 19.66A1.25 1.25 0 0 1 2.52 18.66V7A1.25 1.25 0 0 1 3.46 5.79L11 3.84z" />
    <glyph glyph-name="bookmark"
      unicode="&#xEA27;"
      horiz-adv-x="24" d="M0 24H24V0H0V24zM6 3A1 1 0 0 0 5.51 3.13A1 1 0 0 0 5 4V18.67A2.28 2.28 0 0 0 7.2 21H16.8A2.28 2.28 0 0 0 19 18.67V4A1 1 0 0 0 18.5 3.14A1 1 0 0 0 17.5 3.14L11.83 6.35L6.5 3.15A1 1 0 0 0 6 3z" />
    <glyph glyph-name="briefcase"
      unicode="&#xEA28;"
      horiz-adv-x="24" d="M0 24H24V0H0V24zM7 3H17V17H16V18.5A2.5 2.5 0 0 1 13.5 21H10.5A2.5 2.5 0 0 1 8 18.5V17H7zM10 18.5A0.5 0.5 0 0 0 10.5 19H13.5A0.5 0.5 0 0 0 14 18.5V17H10zM19 17V3A3 3 0 0 1 22 6V14A3 3 0 0 1 19 17zM5 17A3 3 0 0 1 2 14V6A3 3 0 0 1 5 3z" />
    <glyph glyph-name="browser"
      unicode="&#xEA29;"
      horiz-adv-x="24" d="M0 24H24V0H0V24zM18 21H6A3 3 0 0 1 3 18V6A3 3 0 0 1 6 3H18A3 3 0 0 1 21 6V18A3 3 0 0 1 18 21zM12 18A1 1 0 1 0 11 17A1 1 0 0 0 12 18zM8 18A1 1 0 1 0 7 17A1 1 0 0 0 8 18zM19 6A1 1 0 0 0 18 5H6A1 1 0 0 0 5 6V13H19z" />
    <glyph glyph-name="brush"
      unicode="&#xEA2A;"
      horiz-adv-x="24" d="M0 24H24V0H0V24zM7.12 11.45A4 4 0 0 1 4.05 7.59L4.05 4.48A0.47000000000000003 0.47000000000000003 0 0 1 4.53 4L7.77 4.06H7.77A3.7800000000000002 3.7800000000000002 0 0 1 11.21 6.26A3.6500000000000004 3.6500000000000004 0 0 1 7.12 11.45zM19.26 19.54A2.14 2.14 0 0 1 16.38 19.33L10 12.92A0.47000000000000003 0.47000000000000003 0 0 1 10 12.26L12.25 10A0.47000000000000003 0.47000000000000003 0 0 1 12.91 10L19.4 16.47A2.06 2.06 0 0 1 20 17.94A2 2 0 0 1 19.26 19.54z" />
    <glyph glyph-name="bulb"
      unicode="&#xEA2B;"
      horiz-adv-x="24" d="M24 0L0 0L0 24L24 24L24 0zM12 17A5 5 0 0 1 9 8V4A2 2 0 0 1 11 2H13A2 2 0 0 1 15 4V8A5 5 0 0 1 12 17zM12 18A1 1 0 0 1 13 19V21A1 1 0 0 1 11 21V19A1 1 0 0 1 12 18zM21 13H19A1 1 0 0 1 19 11H21A1 1 0 0 1 21 13zM5 13H3A1 1 0 0 1 3 11H5A1 1 0 0 1 5 13zM7.66 17.58L6.22 19A1 1 0 0 1 4.83 17.53L6.27 16.14A1 1 0 0 1 7 15.86A1 1 0 0 1 7.72 16.17A1 1 0 0 1 7.66 17.58zM19.19 18.95A1 1 0 0 1 17.78 18.95L16.34 17.58A1 1 0 0 1 16.34 16.17A1 1 0 0 1 17.06 15.86A1 1 0 0 1 17.75 16.14L19.19 17.53A1 1 0 0 1 19.19 18.95z" />
    <glyph glyph-name="calendar"
      unicode="&#xEA2C;"
      horiz-adv-x="24" d="M0 24H24V0H0V24zM18 20H17V21A1 1 0 0 1 15 21V20H9V21A1 1 0 0 1 7 21V20H6A3 3 0 0 1 3 17V5A3 3 0 0 1 6 2H18A3 3 0 0 1 21 5V17A3 3 0 0 1 18 20zM8 7A1 1 0 1 0 9 8A1 1 0 0 0 8 7zM16 7H12A1 1 0 0 0 12 9H16A1 1 0 0 0 16 7zM19 13H5V17A1 1 0 0 0 6 18H7V17A1 1 0 0 1 9 17V18H15V17A1 1 0 0 1 17 17V18H18A1 1 0 0 0 19 17z" />
    <glyph glyph-name="camera"
      unicode="&#xEA2D;"
      horiz-adv-x="24" d="M0 24H24V0H0V24zM10.5 10A1.5 1.5 0 0 1 13.5 10A1.5 1.5 0 0 1 10.5 10M19 17H16V18.5A2.5 2.5 0 0 1 13.5 21H10.5A2.5 2.5 0 0 1 8 18.5V17H5A3 3 0 0 1 2 14V6A3 3 0 0 1 5 3H19A3 3 0 0 1 22 6V14A3 3 0 0 1 19 17zM10 18.5A0.5 0.5 0 0 0 10.5 19H13.5A0.5 0.5 0 0 0 14 18.5V17H10zM12 6.5A3.5 3.5 0 1 0 15.5 10A3.5 3.5 0 0 0 12 6.5z" />
    <glyph glyph-name="car"
      unicode="&#xEA2E;"
      horiz-adv-x="24" d="M0 24H24V0H0V24zM21.6 12.78L17 16.48V19A1.91 1.91 0 0 1 15.19 21H3.79A1.91 1.91 0 0 1 2 19V9A2 2 0 0 1 3.2 7.12A3 3 0 1 1 8.8 7H15.16A3 3 0 1 1 20.8 7H21A1 1 0 0 1 22 8V12A1 1 0 0 1 21.6 12.78zM20 11.52V9H17V13.92zM7 6A1 1 0 1 0 6 7A1 1 0 0 0 7 6zM19 6A1 1 0 1 0 18 7A1 1 0 0 0 19 6z" />
    <glyph glyph-name="cast"
      unicode="&#xEA2F;"
      horiz-adv-x="24" d="M24 0L0 0L0 24M18.4 21H5.6A2.7 2.7 0 0 1 3 18.22V17A1 1 0 0 1 5 17V18.22A0.72 0.72 0 0 0 5.6 19H18.4A0.72 0.72 0 0 0 19 18.22V5.78A0.72 0.72 0 0 0 18.4 5H17A1 1 0 0 1 17 3H18.4A2.7 2.7 0 0 1 21 5.78V18.22A2.7 2.7 0 0 1 18.4 21zM3.86 10A1 1 0 0 1 3 8.83A1 1 0 0 1 4.14 8A2.49 2.49 0 0 0 6.26 7.28A2.52 2.52 0 0 0 6.77 4.44A1 1 0 0 1 7.25 3.11A1.06 1.06 0 0 1 7.67 3.02A1 1 0 0 1 8.58 3.6A4.52 4.52 0 0 1 3.86 10zM3.86 13.92A1 1 0 0 1 4.14 11.92A6 6 0 0 0 9.23 10.21A6 6 0 0 0 10.76 4.26A1 1 0 0 1 11.44 3A0.8999999999999999 0.8999999999999999 0 0 1 11.72 3A1 1 0 0 1 12.72 3.72A8 8 0 0 1 3.9 13.92zM3 5A1 1 0 0 1 5 5A1 1 0 0 1 3 5" />
    <glyph glyph-name="charging"
      unicode="&#xEA30;"
      horiz-adv-x="24" d="M0 24H24V0H0V24zM11.28 11H7A1 1 0 0 0 6.14 11.5A1 1 0 0 0 6.14 12.5L9.28 18H4.17A2.31 2.31 0 0 1 2 15.57V8.43A2.31 2.31 0 0 1 4.17 6H8.42zM15.83 18H11.58L8.72 13H13A1 1 0 0 0 13.86 12.5A1 1 0 0 0 13.86 11.5L10.72 6H15.83A2.31 2.31 0 0 1 18 8.43V15.57A2.31 2.31 0 0 1 15.83 18zM21 15A1 1 0 0 1 20 14V10A1 1 0 0 1 22 10V14A1 1 0 0 1 21 15z" />
    <glyph glyph-name="checkmark"
      unicode="&#xEA31;"
      horiz-adv-x="24" d="M0 24H24V0H0V24zM9.86 6A1 1 0 0 0 9.13 6.32L4.27 11.49A1 1 0 1 0 5.73 12.86L9.85 8.47L18.26 17.67A1 1 0 1 0 19.74 16.33L10.6 6.33A1 1 0 0 0 9.87 6z" />
    <glyph glyph-name="checkmark-circle"
      unicode="&#xEA32;"
      horiz-adv-x="24" d="M0 24H24V0H0V24zM9.71 12.71A1 1 0 0 1 8.29 11.29L11.29 8.29A1 1 0 0 1 12 8H12A1 1 0 0 1 12.72 8.34L19.72 16.34A1 1 0 0 1 18.22 17.66L12 10.46zM21 13H21A1 1 0 0 1 20 12A8 8 0 0 0 12 4H12A8 8 0 0 0 6.33 17.64A7.93 7.93 0 0 0 12 20A8.79 8.79 0 0 0 13.9 19.78A1 1 0 1 1 14.37 21.72A10.54 10.54 0 0 1 12 22A10 10 0 0 1 5 4.91A9.93 9.93 0 0 1 12 2H12A10 10 0 0 1 22 12A1 1 0 0 1 21 13z" />
    <glyph glyph-name="checkmark-circle-2"
      unicode="&#xEA33;"
      horiz-adv-x="24" d="M0 24H24V0H0V24zM12 22A10 10 0 1 1 22 12A10 10 0 0 1 12 22zM16.3 14.39L11.73 8.39A1 1 0 0 0 10.94 8H10.94A1 1 0 0 0 10.15 8.38L7.71 11.49A1 1 0 0 0 9.29 12.72L10.92 10.64L14.7 15.64A1 1 0 1 0 16.3 14.42z" />
    <glyph glyph-name="checkmark-square"
      unicode="&#xEA34;"
      horiz-adv-x="24" d="M0 24H24V0H0V24zM20 12.17A1 1 0 0 1 19 11.17V5.6A0.6 0.6 0 0 0 18.4 5H5.6A0.6 0.6 0 0 0 5 5.6V18.4A0.6 0.6 0 0 0 5.6 19H15.17A1 1 0 1 1 15.17 21H5.6A2.61 2.61 0 0 1 3 18.4V5.6A2.61 2.61 0 0 1 5.6 3H18.4A2.61 2.61 0 0 1 21 5.6V11.17A1 1 0 0 1 20 12.17zM10.72 13A1 1 0 0 1 9.28 11.62L11.5 9.29A1 1 0 0 1 12.22 8.98H12.22A1 1 0 0 1 12.94 9.28L19.72 16.28A1 1 0 1 1 18.28 17.68L12.23 11.42z" />
    <glyph glyph-name="checkmark-square-2"
      unicode="&#xEA35;"
      horiz-adv-x="24" d="M24 0L0 0L0 24L24 24L24 0zM18 21H6A3 3 0 0 1 3 18V6A3 3 0 0 1 6 3H18A3 3 0 0 1 21 6V18A3 3 0 0 1 18 21zM16.3 14.39L11.73 8.39A1 1 0 0 0 10.94 8H10.94A1 1 0 0 0 10.15 8.38L7.71 11.49A1 1 0 0 0 9.29 12.72L10.92 10.64L14.7 15.64A1 1 0 1 0 16.3 14.42z" />
    <glyph glyph-name="chevron-down"
      unicode="&#xEA36;"
      horiz-adv-x="24" d="M0 24H24V0H0V24zM12 8.5A1 1 0 0 0 11.29 8.79L7.29 12.79A1 1 0 1 0 8.71 14.21L12 10.9L15.3 14.08A1 1 0 1 0 16.68 12.64L12.68 8.78A1 1 0 0 0 12 8.5z" />
    <glyph glyph-name="chevron-left"
      unicode="&#xEA37;"
      horiz-adv-x="24" d="M24 24L24 0L0 0L0 24L24 24zM13.36 7A1 1 0 0 0 12.64 7.31L8.78 11.31A1 1 0 0 0 8.78 12.71L12.78 16.71A1 1 0 1 0 14.2 15.29L10.9 12L14.08 8.7A1 1 0 0 0 14.08 7.29A1 1 0 0 0 13.36 7z" />
    <glyph glyph-name="chevron-right"
      unicode="&#xEA38;"
      horiz-adv-x="24" d="M0 0L0 24L24 24L24 0L0 0zM10.5 7A1 1 0 0 0 9.79 7.29A1 1 0 0 0 9.79 8.71L13.1 12L9.92 15.31A1 1 0 0 0 9.92 16.72A1 1 0 0 0 11.34 16.72L15.2 12.72A1 1 0 0 0 15.2 11.32L11.2 7.32A1 1 0 0 0 10.5 7z" />
    <glyph glyph-name="chevron-up"
      unicode="&#xEA39;"
      horiz-adv-x="24" d="M24 0L0 0L0 24L24 24L24 0zM16 9.5A1 1 0 0 0 15.29 9.79L12 13.1L8.7 9.92A1 1 0 0 0 7.29 9.92A1 1 0 0 0 7.29 11.34L11.29 15.2A1 1 0 0 0 12.69 15.2L16.69 11.2A1 1 0 0 0 16.69 9.78A1 1 0 0 0 16 9.5z" />
    <glyph glyph-name="clipboard"
      unicode="&#xEA3A;"
      horiz-adv-x="24" d="M0 24H24V0H0V24zM18 20V17A2 2 0 0 0 16 15H8A2 2 0 0 0 6 17V20A3 3 0 0 1 3 17V5A3 3 0 0 1 6 2H18A3 3 0 0 1 21 5V17A3 3 0 0 1 18 20zM8 22H16A1 1 0 0 0 17 21V17A1 1 0 0 0 16 16H8A1 1 0 0 0 7 17V21A1 1 0 0 0 8 22z" />
    <glyph glyph-name="clock"
      unicode="&#xEA3B;"
      horiz-adv-x="24" d="M24 0L0 0L0 24L24 24L24 0zM12 22A10 10 0 1 1 22 12A10 10 0 0 1 12 22zM16 11H12A1 1 0 0 0 11 12V16A1 1 0 0 0 13 16V13H16A1 1 0 0 0 16 11z" />
    <glyph glyph-name="close"
      unicode="&#xEA3C;"
      horiz-adv-x="24" d="M24 0L0 0L0 24L24 24L24 0zM13.41 12L17.71 16.29A1 1 0 1 1 16.29 17.71L12 13.41L7.71 17.71A1 1 0 0 1 6.29 16.29L10.59 12L6.29 7.71A1 1 0 0 1 6.29 6.29A1 1 0 0 1 7.71 6.29L12 10.59L16.29 6.29A1 1 0 0 1 17.71 6.29A1 1 0 0 1 17.71 7.71z" />
    <glyph glyph-name="close-circle"
      unicode="&#xEA3D;"
      horiz-adv-x="24" d="M0 24H24V0H0V24zM12 22A10 10 0 1 1 22 12A10 10 0 0 1 12 22zM14.71 10.71A1 1 0 0 0 14.71 9.29A1 1 0 0 0 13.29 9.29L12 10.59L10.71 9.29A1 1 0 0 0 9.29 9.29A1 1 0 0 0 9.29 10.71L10.59 12L9.29 13.29A1 1 0 0 0 10.71 14.71L12 13.41L13.29 14.71A1 1 0 0 0 14.71 13.29L13.41 12z" />
    <glyph glyph-name="close-square"
      unicode="&#xEA3E;"
      horiz-adv-x="24" d="M0 24H24V0H0V24zM18 21H6A3 3 0 0 1 3 18V6A3 3 0 0 1 6 3H18A3 3 0 0 1 21 6V18A3 3 0 0 1 18 21zM14.71 10.71A1 1 0 0 0 14.71 9.29A1 1 0 0 0 13.29 9.29L12 10.59L10.71 9.29A1 1 0 0 0 9.29 9.29A1 1 0 0 0 9.29 10.71L10.59 12L9.29 13.29A1 1 0 0 0 10.71 14.71L12 13.41L13.29 14.71A1 1 0 0 0 14.71 13.29L13.41 12z" />
    <glyph glyph-name="cloud-download"
      unicode="&#xEA3F;"
      horiz-adv-x="24" d="M0 24H24V0H0V24zM21.9 13C21.9 13.11 21.84 13.22 21.81 13.33A4.17 4.17 0 0 1 21.63 13.9C21.58 14.02 21.51 14.14 21.45 14.27S21.3 14.57 21.21 14.71S21 14.92 21 15S20.8 15.25 20.69 15.37S20.48 15.57 20.37 15.67L20 16L19.64 16.24A3.68 3.68 0 0 1 19.2 16.47L18.81 16.65A4.13 4.13 0 0 1 18.31 16.8A3 3 0 0 1 17.9 16.89L17.72 16.89A6 6 0 0 1 6.33 17L6.15 17A3 3 0 0 1 5.74 16.91A4.13 4.13 0 0 1 5.24 16.76L4.85 16.58A3.68 3.68 0 0 1 4.41 16.35L4.05 16L3.68 15.69C3.57 15.59 3.46 15.5 3.36 15.39S3.15 15.14 3.05 15.02S2.87 14.79 2.79 14.66S2.63 14.37 2.55 14.22S2.42 13.97 2.37 13.85A4.17 4.17 0 0 1 2.19 13.28C2.19 13.17 2.12 13.06 2.1 12.95A5.23 5.23 0 0 1 2 12A5.5 5.5 0 0 1 2.09 11.09C2.09 10.99 2.14 10.9 2.16 10.8A5.58 5.58 0 0 1 2.34 10.22L2.46 9.93A5 5 0 0 1 2.76 9.37L2.9 9.15A0.56 0.56 0 0 1 2.95 9.07L3 9A5 5 0 0 1 7 7H7A2 2 0 0 0 7.59 8.41A2 2 0 0 0 9 9A1.92 1.92 0 0 0 10 8.73V12A2 2 0 0 0 14 12V8.63A2 2 0 0 0 15 8.9A2.0500000000000003 2.0500000000000003 0 0 0 16.44 8.29A2 2 0 0 0 17 7H17A5 5 0 0 1 21 9L21.05 9.05A0.56 0.56 0 0 1 21.1 9.13L21.24 9.35A5 5 0 0 1 21.54 9.91L21.66 10.2A5.58 5.58 0 0 1 21.84 10.78C21.84 10.88 21.89 10.97 21.91 11.07A5.5 5.5 0 0 1 22 12A5.23 5.23 0 0 1 21.9 13zM14.31 7.62L13 6.36V12A1 1 0 0 1 11 12V6.41L9.71 7.71A1 1 0 0 1 8.29 6.29L11.29 3.29A1 1 0 0 1 12 3A1 1 0 0 1 12.69 3.28L15.69 6.18A1 1 0 1 1 14.31 7.62zM0 24H24V0H0V24zM21.9 13C21.9 13.11 21.84 13.22 21.81 13.33A4.17 4.17 0 0 1 21.63 13.9C21.58 14.02 21.51 14.14 21.45 14.27S21.3 14.57 21.21 14.71S21 14.92 21 15S20.8 15.25 20.69 15.37S20.48 15.57 20.37 15.67L20 16L19.64 16.24A3.68 3.68 0 0 1 19.2 16.47L18.81 16.65A4.13 4.13 0 0 1 18.31 16.8A3 3 0 0 1 17.9 16.89L17.72 16.89A6 6 0 0 1 6.33 17L6.15 17A3 3 0 0 1 5.74 16.91A4.13 4.13 0 0 1 5.24 16.76L4.85 16.58A3.68 3.68 0 0 1 4.41 16.35L4.05 16L3.68 15.69C3.57 15.59 3.46 15.5 3.36 15.39S3.15 15.14 3.05 15.02S2.87 14.79 2.79 14.66S2.63 14.37 2.55 14.22S2.42 13.97 2.37 13.85A4.17 4.17 0 0 1 2.19 13.28C2.19 13.17 2.12 13.06 2.1 12.95A5.23 5.23 0 0 1 2 12A5.5 5.5 0 0 1 2.09 11.09C2.09 10.99 2.14 10.9 2.16 10.8A5.58 5.58 0 0 1 2.34 10.22L2.46 9.93A5 5 0 0 1 2.76 9.37L2.9 9.15A0.56 0.56 0 0 1 2.95 9.07L3 9A5 5 0 0 1 7 7H7A2 2 0 0 0 7.59 8.41A2 2 0 0 0 9 9A1.92 1.92 0 0 0 10 8.73V12A2 2 0 0 0 14 12V8.63A2 2 0 0 0 15 8.9A2.0500000000000003 2.0500000000000003 0 0 0 16.44 8.29A2 2 0 0 0 17 7H17A5 5 0 0 1 21 9L21.05 9.05A0.56 0.56 0 0 1 21.1 9.13L21.24 9.35A5 5 0 0 1 21.54 9.91L21.66 10.2A5.58 5.58 0 0 1 21.84 10.78C21.84 10.88 21.89 10.97 21.91 11.07A5.5 5.5 0 0 1 22 12A5.23 5.23 0 0 1 21.9 13zM14.31 7.62L13 6.36V12A1 1 0 0 1 11 12V6.41L9.71 7.71A1 1 0 0 1 8.29 6.29L11.29 3.29A1 1 0 0 1 12 3A1 1 0 0 1 12.69 3.28L15.69 6.18A1 1 0 1 1 14.31 7.62z" />
    <glyph glyph-name="cloud-upload"
      unicode="&#xEA40;"
      horiz-adv-x="24" d="M0 24H24V0H0V24zM21.9 12C21.9 12.11 21.84 12.22 21.81 12.33A4.17 4.17 0 0 1 21.63 12.9C21.58 13.02 21.51 13.14 21.45 13.27S21.3 13.57 21.21 13.71S21 13.92 21 14S20.8 14.25 20.69 14.37S20.48 14.57 20.37 14.67L20 15L19.64 15.24A3.68 3.68 0 0 1 19.2 15.47L18.81 15.65A4.13 4.13 0 0 1 18.31 15.8A3 3 0 0 1 17.9 15.89L17.67 16A6 6 0 0 1 6.33 16L6.15 15.95A3 3 0 0 1 5.74 15.86A4.13 4.13 0 0 1 5.24 15.71L4.85 15.53A3.68 3.68 0 0 1 4.41 15.3L4.05 15L3.68 14.69C3.57 14.59 3.46 14.5 3.36 14.39S3.15 14.14 3.05 14.02S2.87 13.79 2.79 13.66S2.63 13.37 2.55 13.22S2.42 12.97 2.37 12.85A4.17 4.17 0 0 1 2.19 12.28C2.19 12.17 2.12 12.06 2.1 11.95A5.23 5.23 0 0 1 2 11A5.5 5.5 0 0 1 2.09 10.09C2.09 9.99 2.14 9.9 2.16 9.8A5.58 5.58 0 0 1 2.34 9.22L2.46 8.93A5 5 0 0 1 2.76 8.37L2.9 8.15A0.56 0.56 0 0 1 2.95 8.07L3 8A5 5 0 0 1 7 6H10V7.37A2 2 0 0 0 9 7.1A2.0500000000000003 2.0500000000000003 0 0 0 7.56 7.71A2 2 0 0 0 7.61 10.54L10.61 13.44A2 2 0 0 0 12 14A2 2 0 0 0 13.41 13.41L16.41 10.41A2 2 0 0 0 16.41 7.59A2 2 0 0 0 15 7A1.92 1.92 0 0 0 14 7.27V6H17A5 5 0 0 1 21 8L21.05 8.05A0.56 0.56 0 0 1 21.1 8.13L21.24 8.35A5 5 0 0 1 21.54 8.91L21.66 9.2A5.58 5.58 0 0 1 21.84 9.78C21.84 9.88 21.89 9.97 21.91 10.07A5.5 5.5 0 0 1 22 11A5.23 5.23 0 0 1 21.9 12zM12.71 12.71A1 1 0 0 1 11.31 12.71L8.31 9.81A1 1 0 1 1 9.69 8.37L11 9.64V4A1 1 0 0 1 13 4V9.59L14.29 8.29A1 1 0 0 1 15.71 8.29A1 1 0 0 1 15.71 9.71z" />
    <glyph glyph-name="code"
      unicode="&#xEA41;"
      horiz-adv-x="24" d="M24 24L24 0L0 0L0 24L24 24zM8.64 18.77A1 1 0 0 1 7.23 18.64L2.23 12.64A1 1 0 0 1 2.23 11.37L7.06 5.37A1 1 0 0 1 7.84 5A1 1 0 0 1 8.62 6.63L4.29 12L8.77 17.36A1 1 0 0 1 8.64 18.77zM21.78 12.63L17 18.63A1 1 0 0 1 15.59 18.78A1 1 0 0 1 15.44 17.37L19.71 12L15.23 6.63A1 1 0 0 1 15.36 5.22A1 1 0 0 1 16 5A1 1 0 0 1 16.77 5.36L21.77 11.36A1 1 0 0 1 21.78 12.63z" />
    <glyph glyph-name="code-download"
      unicode="&#xEA42;"
      horiz-adv-x="24" d="M24 24L24 0L0 0L0 24L24 24zM4.29 12L8.77 17.36A1 1 0 1 1 7.23 18.64L2.23 12.64A1 1 0 0 1 2.23 11.37L7.06 5.37A1 1 0 0 1 7.84 5A1 1 0 0 1 8.62 6.63zM21.78 12.63L17 18.63A1 1 0 0 1 15.44 17.37L19.71 12L15.23 6.63A1 1 0 0 1 15.36 5.22A1 1 0 0 1 16 5A1 1 0 0 1 16.77 5.36L21.77 11.36A1 1 0 0 1 21.78 12.63zM15.72 12.59A1 1 0 0 1 14.31 12.59L13 11.36V16A1 1 0 0 1 11 16V11.41L9.71 12.71A1 1 0 0 1 8.29 11.29L11.29 8.29A1 1 0 0 1 12 8A1 1 0 0 1 12.69 8.28L15.69 11.18A1 1 0 0 1 15.72 12.59z" />
    <glyph glyph-name="collapse"
      unicode="&#xEA43;"
      horiz-adv-x="24" d="M24 0L0 0L0 24L24 24L24 0zM19 15H16.42L19.71 18.29A1 1 0 1 1 18.29 19.71L15 16.43V19A1 1 0 0 1 14 20H14A1 1 0 0 1 13 19L13 14A1 1 0 0 1 14 13H19A1 1 0 0 1 19 15zM10 11L5 11H5A1 1 0 0 1 5 9H7.57L4.29 5.71A1 1 0 0 1 4.29 4.29A1 1 0 0 1 5.71 4.29L9 7.58V5A1 1 0 0 1 10 4H10A1 1 0 0 1 11 5V10A1 1 0 0 1 10 11z" />
    <glyph glyph-name="color-palette"
      unicode="&#xEA44;"
      horiz-adv-x="24" d="M0 24H24V0H0V24zM19.54 18.92A10.61 10.61 0 0 1 11.91 22H11.91A10 10 0 0 1 11.86 2H11.86A2.58 2.58 0 0 1 14.39 3.89A2.52 2.52 0 0 1 13.82 6.17A0.5 0.5 0 0 0 14.19 7H15.84A6.15 6.15 0 0 1 22 12.67A8.48 8.48 0 0 1 19.54 18.92zM6.84 9.26A1.5 1.5 0 1 0 7.24 11.34A1.49 1.49 0 0 0 6.84 9.26zM8.3 14.75A1.5 1.5 0 1 0 7.75 16.75A1.5 1.5 0 0 0 8.3 14.75zM11 17A1.5 1.5 0 1 0 12.5 18.5A1.5 1.5 0 0 0 11 17zM16.75 16.2A1.5 1.5 0 1 0 17.3 18.2A1.5 1.5 0 0 0 16.75 16.2z" />
    <glyph glyph-name="color-picker"
      unicode="&#xEA45;"
      horiz-adv-x="24" d="M0 24H24V0H0V24zM19.4 16.66L16.66 19.4A1.92 1.92 0 0 1 14 19.47L12 17.47L10.71 18.71A1 1 0 0 1 9.29 17.29L10.53 16L5 10.47A2 2 0 0 1 4.43 9.26L4 5.09A1 1 0 0 1 4.29 4.29A1 1 0 0 1 5 4H5.09L9.26 4.38A2 2 0 0 1 10.47 4.95L16.05 10.53L17.29 9.29A1 1 0 0 1 18.71 9.29A1 1 0 0 1 18.71 10.71L17.47 11.95L19.47 13.95A1.92 1.92 0 0 1 19.4 16.66zM6.4 9.06L12 14.64L14.69 11.94L11.9 9.15" />
    <glyph glyph-name="compass"
      unicode="&#xEA46;"
      horiz-adv-x="24" d="M0 24H24V0H0V24zM10.8 10.79L12.49 11.47L13.2 13.21L11.51 12.53L10.8 10.79zM12 22A10 10 0 1 1 22 12A10 10 0 0 1 12 22zM15.93 14.58L14.18 10.32A1 1 0 0 0 13.63 9.77L9.42 8.07A1 1 0 0 0 9 8A1 1 0 0 0 8.29 8.31L8.24 8.31L8.24 8.31A1 1 0 0 0 8.06 9.31L9.81 13.57A1 1 0 0 0 10.36 14.12L14.57 15.82A1 1 0 0 0 15.67 15.57A1 1 0 0 0 15.93 14.58z" />
    <glyph glyph-name="copy"
      unicode="&#xEA47;"
      horiz-adv-x="24" d="M0 24H24V0H0V24zM18 15H15V18.33A2.68 2.68 0 0 1 12.33 21H5.67A2.68 2.68 0 0 1 3 18.33V11.67A2.68 2.68 0 0 1 5.67 9H9V6A3 3 0 0 1 12 3H18A3 3 0 0 1 21 6V12A3 3 0 0 1 18 15zM9 12V11H5.67A0.67 0.67 0 0 0 5 11.67V18.33A0.67 0.67 0 0 0 5.67 19H12.33A0.67 0.67 0 0 0 13 18.33V15H12A3 3 0 0 1 9 12z" />
    <glyph glyph-name="corner-down-left"
      unicode="&#xEA48;"
      horiz-adv-x="24.1" d="M0.0002090002493 0.0997901224538L0.100739671179 24.0995795712011L24.1005291199263 23.9990489002714L23.9999984489966 -0.0007405484759L0.0002090002493 0.0997901224538zM20 18.1A1 1 0 0 1 19 19.1H19A1 1 0 0 1 18 18.1L18 13.1A1 1 0 0 0 17.71 12.39A1 1 0 0 0 17 12.1L8.08 12.1L10.77 15.49A1 1 0 0 1 9.25 16.66L5.25 11.66A1 1 0 0 1 5.25 10.41L9.25 5.41A1 1 0 0 1 10.03 5.04A1 1 0 0 1 10.65 5.26A1 1 0 0 1 10.8 6.67L8.14 10.03L17.06 10.03A3 3 0 0 1 20.06 13.03z" />
    <glyph glyph-name="corner-down-right"
      unicode="&#xEA49;"
      horiz-adv-x="24" d="M0 0L0 24L24 24L24 0L0 0zM19.78 11.62L15.78 16.62A1 1 0 0 1 14.22 15.38L16.92 12H8A1 1 0 0 0 7 13V18A1 1 0 0 1 5 18V13A3 3 0 0 1 8 10H16.92L14.22 6.62A1 1 0 0 1 14.38 5.22A1 1 0 0 1 15 5A1 1 0 0 1 15.78 5.38L19.78 10.38A1 1 0 0 1 19.78 11.62z" />
    <glyph glyph-name="corner-left-down"
      unicode="&#xEA4A;"
      horiz-adv-x="24" d="M0 24H24V0H0V24zM18 19H13A3 3 0 0 1 10 16V7.08L6.62 9.78A1 1 0 0 1 5.38 8.22L10.38 4.22A1 1 0 0 1 11.62 4.22L16.62 8.22A1 1 0 1 1 15.38 9.78L12 7.08V16A1 1 0 0 0 13 17H18A1 1 0 0 1 18 19z" />
    <glyph glyph-name="corner-left-up"
      unicode="&#xEA4B;"
      horiz-adv-x="24" d="M24 0L0 0L0 24L24 24L24 0zM18 7H13A1 1 0 0 0 12 8V16.92L15.38 14.22A1 1 0 0 1 16 14A1 1 0 0 1 16.78 14.38A1 1 0 0 1 16.62 15.78L11.62 19.78A1 1 0 0 1 10.38 19.78L5.38 15.78A1 1 0 0 1 6.62 14.22L10 16.92V8A3 3 0 0 1 13 5H18A1 1 0 0 1 18 7z" />
    <glyph glyph-name="corner-right-down"
      unicode="&#xEA4C;"
      horiz-adv-x="24" d="M0 24H24V0H0V24zM18.78 9.62A1 1 0 0 1 17.38 9.78L14 7.08V16A3 3 0 0 1 11 19H6A1 1 0 0 1 6 17H11A1 1 0 0 0 12 16V7.08L8.62 9.78A1 1 0 0 1 7.38 8.22L12.38 4.22A1 1 0 0 1 13.62 4.22L18.62 8.22A1 1 0 0 1 18.78 9.62z" />
    <glyph glyph-name="corner-right-up"
      unicode="&#xEA4D;"
      horiz-adv-x="24" d="M24 0L0 0L0 24L24 24L24 0zM18.62 15.78L13.62 19.78A1 1 0 0 1 12.38 19.78L7.38 15.78A1 1 0 0 1 8.62 14.22L12 16.92V8A1 1 0 0 0 11 7H6A1 1 0 0 1 6 5H11A3 3 0 0 1 14 8V16.92L17.38 14.22A1 1 0 0 1 18 14A1 1 0 0 1 18.78 14.38A1 1 0 0 1 18.62 15.78z" />
    <glyph glyph-name="corner-up-left"
      unicode="&#xEA4E;"
      horiz-adv-x="24" d="M24 24L24 0L0 0L0 24L24 24zM16 14H7.08L9.78 17.38A1 1 0 1 1 8.22 18.62L4.22 13.62A1 1 0 0 1 4.22 12.38L8.22 7.38A1 1 0 0 1 9 7A1 1 0 0 1 9.62 7.22A1 1 0 0 1 9.78 8.62L7.08 12H16A1 1 0 0 0 17 11V6A1 1 0 0 1 19 6V11A3 3 0 0 1 16 14z" />
    <glyph glyph-name="corner-up-right"
      unicode="&#xEA4F;"
      horiz-adv-x="24" d="M0 0L0 24L24 24L24 0L0 0zM19.78 13.62L15.78 18.62A1 1 0 0 1 14.22 17.38L16.92 14H8A3 3 0 0 1 5 11V6A1 1 0 0 1 7 6V11A1 1 0 0 0 8 12H16.92L14.22 8.62A1 1 0 0 1 14.38 7.22A1 1 0 0 1 15 7A1 1 0 0 1 15.78 7.38L19.78 12.38A1 1 0 0 1 19.78 13.62z" />
    <glyph glyph-name="credit-card"
      unicode="&#xEA50;"
      horiz-adv-x="24" d="M0 24H24V0H0V24zM19 19H5A3 3 0 0 1 2 16V8A3 3 0 0 1 5 5H19A3 3 0 0 1 22 8V16A3 3 0 0 1 19 19zM11 9H7A1 1 0 0 0 7 11H11A1 1 0 0 0 11 9zM17 9H15A1 1 0 0 0 15 11H17A1 1 0 0 0 17 9zM20 15H4V16A1 1 0 0 0 5 17H19A1 1 0 0 0 20 16z" />
    <glyph glyph-name="crop"
      unicode="&#xEA51;"
      horiz-adv-x="24" d="M0 24H24V0H0V24zM21 8H18V15.44A2.56 2.56 0 0 1 15.44 18H8V21A1 1 0 0 1 6 21V18H3A1 1 0 0 1 3 16H6V8.56A2.56 2.56 0 0 1 8.56 6H16V3A1 1 0 0 1 18 3V6H21A1 1 0 0 1 21 8zM8.56 8A0.56 0.56 0 0 0 8 8.56V16H15.44A0.56 0.56 0 0 0 16 15.44V8z" />
    <glyph glyph-name="cube"
      unicode="&#xEA52;"
      horiz-adv-x="24" d="M0 24H24V0H0V24zM11.25 12.17L3 15.64V7.91A1.69 1.69 0 0 1 4 6.39L11.19 3L11.25 3zM12 13.5L20.51 17.07A1.62 1.62 0 0 1 20 17.45L12.8 20.82A1.8699999999999999 1.8699999999999999 0 0 1 11.2 20.82L4 17.45A1.62 1.62 0 0 1 3.49 17.07zM12.75 12.17V3L12.8 3L20 6.39A1.69 1.69 0 0 1 21 7.9V15.64z" />
    <glyph glyph-name="diagonal-arrow-left-down"
      unicode="&#xEA53;"
      horiz-adv-x="24" d="M0 24H24V0H0V24zM17.71 17.71A1 1 0 0 1 16.29 17.71L8 9.41V15A1 1 0 0 1 6 15V7A1 1 0 0 1 7 6H15A1 1 0 0 1 15 8H9.41L17.71 16.29A1 1 0 0 1 17.71 17.71z" />
    <glyph glyph-name="diagonal-arrow-left-up"
      unicode="&#xEA54;"
      horiz-adv-x="24" d="M24 24L24 0L0 0L0 24L24 24zM17.71 7.71L9.42 16H15A1 1 0 0 1 15 18H7.05A1 1 0 0 1 6.05 17L6.05 9A1 1 0 0 1 7.05 8H7A1 1 0 0 1 8 9L8 14.55L16.26 6.29A1 1 0 0 1 17.68 6.29A1 1 0 0 1 17.71 7.71z" />
    <glyph glyph-name="diagonal-arrow-right-down"
      unicode="&#xEA55;"
      horiz-adv-x="24" d="M0 0L0 24L24 24L24 0L0 0zM17 16A1 1 0 0 1 16 15V9.41L7.71 17.71A1 1 0 0 1 6.29 16.29L14.59 8H9A1 1 0 0 1 9 6H17A1 1 0 0 1 18 7V15A1 1 0 0 1 17 16z" />
    <glyph glyph-name="diagonal-arrow-right-up"
      unicode="&#xEA56;"
      horiz-adv-x="24" d="M24 0L0 0L0 24L24 24L24 0zM18 16.95A1 1 0 0 1 17 17.95L9 18H9A1 1 0 0 1 9 16L14.56 16L6.29 7.71A1 1 0 0 1 6.29 6.29A1 1 0 0 1 7.71 6.29L16 14.58V9A1 1 0 0 1 17 8H17A1 1 0 0 1 18 9z" />
    <glyph glyph-name="done-all"
      unicode="&#xEA57;"
      horiz-adv-x="24" d="M0 24H24V0H0V24zM16.62 17.79A1 1 0 0 1 15.21 17.62L8.21 8.62L4.78 12.8A1 1 0 1 1 3.22 11.55L7.39 6.37A1 1 0 0 1 8.17 6H8.17A1 1 0 0 1 9 6.38L16.83 16.38A1 1 0 0 1 16.62 17.79zM21.62 17.79A1 1 0 0 1 20.21 17.62L13.21 8.62L12.6 9.37L11.34 7.75L12.44 6.38A1 1 0 0 1 13.22 6.01H13.22A1 1 0 0 1 14 6.39L21.83 16.39A1 1 0 0 1 21.62 17.79zM8.71 10.94L10 12.56L9.8 12.8A1 1 0 0 1 8.37 13A1 1 0 0 1 8.22 11.59z" />
    <glyph glyph-name="download"
      unicode="&#xEA58;"
      horiz-adv-x="24" d="M0 24H24V0H0V24zM5 6H19A1 1 0 0 0 20 5V5A1 1 0 0 0 19 4H5A1 1 0 0 0 4 5V5A1 1 0 0 0 5 6zM4 5L4 7A1 1 0 0 0 5 8L5 8A1 1 0 0 0 6 7L6 5A1 1 0 0 0 5 4L5 4A1 1 0 0 0 4 5zM18 5L18 7A1 1 0 0 0 19 8L19 8A1 1 0 0 0 20 7L20 5A1 1 0 0 0 19 4L19 4A1 1 0 0 0 18 5zM12 9A1 1 0 0 0 11.42 9.18L7.42 12A1 1 0 0 0 7.18 13.39A1 1 0 0 0 8.58 13.63L12 11.24L15.4 13.8A1 1 0 0 0 16.6 12.2L12.6 9.2A1 1 0 0 0 12 9zM12 11A1 1 0 0 0 11 12V20A1 1 0 0 0 13 20V12A1 1 0 0 0 12 11z" />
    <glyph glyph-name="droplet"
      unicode="&#xEA59;"
      horiz-adv-x="24.2" d="M0.1991587425864 24.1991657609307L24.1983165412699 23.9981061829762L23.9972569633154 -0.0010516157074L-0.0019008353681 0.2000079622471L0.1991587425864 24.1991657609307zM12 3.1A7.3999999999999995 7.3999999999999995 0 0 0 6.72 5.38A7.7299999999999995 7.7299999999999995 0 0 0 6.82 16.15L11.46 20.8A0.9400000000000001 0.9400000000000001 0 0 0 12.17 21.1H12.17A1 1 0 0 0 12.88 20.79L17.44 16.07A7.7299999999999995 7.7299999999999995 0 0 0 17.35 5.3A7.33 7.33 0 0 0 12 3.1z" />
    <glyph glyph-name="droplet-off"
      unicode="&#xEA5A;"
      horiz-adv-x="24" d="M0 24H24V0H0V24zM19 7.86A7.7299999999999995 7.7299999999999995 0 0 1 17.34 16L12.78 20.69A1 1 0 0 1 12.07 21H12.07A1 1 0 0 1 11.35 20.7L8.74 18.08zM6 15.18A7.7299999999999995 7.7299999999999995 0 0 1 6.64 5.28A7.44 7.44 0 0 1 11.92 3H11.92A7.340000000000001 7.340000000000001 0 0 1 16.56 4.6zM20.71 4.71L4.71 20.71A1 1 0 0 1 3.29 19.29L19.29 3.29A1 1 0 0 1 20.71 3.29A1 1 0 0 1 20.71 4.71z" />
    <glyph glyph-name="edit"
      unicode="&#xEA5B;"
      horiz-adv-x="24" d="M0 24H24V0H0V24zM19.4 16.66H19.4L16.66 19.4A2 2 0 0 1 14 19.47L5 10.47A2 2 0 0 1 4.43 9.26L4 5.09A1 1 0 0 1 4.29 4.29A1 1 0 0 1 5 4H5.09L9.26 4.38A2 2 0 0 1 10.47 4.95L19.47 13.95A1.92 1.92 0 0 1 19.4 16.66zM16 13.32L13.32 16L15.27 18L18 15.27z" />
    <glyph glyph-name="edit-2"
      unicode="&#xEA5C;"
      horiz-adv-x="24" d="M0 24H24V0H0V24zM19 4H5A1 1 0 0 1 5 2H19A1 1 0 0 1 19 4zM5 6H5.09L9.26 6.38A2 2 0 0 1 10.47 6.95L19.47 15.95A1.92 1.92 0 0 1 19.4 18.66H19.4L16.66 21.4A2 2 0 0 1 14 21.47L5 12.47A2 2 0 0 1 4.43 11.26L4 7.09A1 1 0 0 1 4.29 6.29A1 1 0 0 1 5 6zM15.27 20L18 17.27L16 15.32L13.32 18z" />
    <glyph glyph-name="email"
      unicode="&#xEA5D;"
      horiz-adv-x="24" d="M0 24H24V0H0V24zM19 20H5A3 3 0 0 1 2 17V7A3 3 0 0 1 5 4H19A3 3 0 0 1 22 7V17A3 3 0 0 1 19 20zM19 18L12.5 13.53A1 1 0 0 0 11.5 13.53L5 18z" />
    <glyph glyph-name="expand"
      unicode="&#xEA5E;"
      horiz-adv-x="24" d="M24 0L0 0L0 24L24 24L24 0zM20 19A1 1 0 0 1 19 20L14 20H14A1 1 0 0 1 14 18H16.57L13.29 14.71A1 1 0 0 1 13.29 13.29A1 1 0 0 1 14.71 13.29L18 16.58V14A1 1 0 0 1 19 13H19A1 1 0 0 1 20 14zM10.71 10.71A1 1 0 0 1 9.29 10.71L6 7.43V10A1 1 0 0 1 5 11H5A1 1 0 0 1 4 10L4 5A1 1 0 0 1 5 4H10A1 1 0 0 1 10 6H7.42L10.71 9.29A1 1 0 0 1 10.71 10.71z" />
    <glyph glyph-name="external-link"
      unicode="&#xEA5F;"
      horiz-adv-x="24" d="M0 24H24V0H0V24zM20 13A1 1 0 0 1 19 12V6A1 1 0 0 0 18 5H6A1 1 0 0 0 5 6V18A1 1 0 0 0 6 19H12A1 1 0 0 1 12 21H6A3 3 0 0 1 3 18V6A3 3 0 0 1 6 3H18A3 3 0 0 1 21 6V12A1 1 0 0 1 20 13zM16 19H17.58L11.29 12.72A1 1 0 0 1 11.29 11.3A1 1 0 0 1 12.71 11.3L19 17.58V16A1 1 0 0 1 20 15H20A1 1 0 0 1 21 16V20A1 1 0 0 1 20 21L16 21H16A1 1 0 0 1 16 19z" />
    <glyph glyph-name="eye"
      unicode="&#xEA60;"
      horiz-adv-x="24" d="M0 24H24V0H0V24zM10.5 12A1.5 1.5 0 0 1 13.5 12A1.5 1.5 0 0 1 10.5 12M21.87 12.5C21.23 13.61 17.71 19.18 11.73 19C6.2 18.86 3 14 2.13 12.5A1 1 0 0 1 2.13 11.5C2.76 10.41 6.13 5 12.02 5H12.27C17.8 5.14 21.01 10 21.87 11.5A1 1 0 0 1 21.87 12.5zM12 8.5A3.5 3.5 0 1 0 15.5 12A3.5 3.5 0 0 0 12 8.5z" />
    <glyph glyph-name="eye-off"
      unicode="&#xEA61;"
      horiz-adv-x="24" d="M0 24H24V0H0V24zM10.5 12A1.5 1.5 0 0 1 13.5 12A1.5 1.5 0 0 1 10.5 12M15.29 5.88L14 7.22L13.93 7.29L12.66 8.56A4.07 4.07 0 0 0 12.05 8.5A3.5 3.5 0 0 0 8.5 12A4.07 4.07 0 0 0 8.56 12.61L6.56 14.61L5 16.13A15.890000000000002 15.890000000000002 0 0 1 2.13 12.5A1 1 0 0 1 2.13 11.5C2.76 10.41 6.13 5 12.02 5H12.27A9.48 9.48 0 0 1 15.5 5.67zM8.59 18.24L11.39 15.44A4.07 4.07 0 0 0 12 15.5A3.5 3.5 0 0 0 15.5 12A4.07 4.07 0 0 0 15.44 11.39L18.12 8.71L18.96 7.87A15.890000000000002 15.890000000000002 0 0 1 21.87 11.5A1 1 0 0 1 21.87 12.5C21.23 13.61 17.71 19.18 11.73 19A9.48 9.48 0 0 1 8.5 18.33zM20.71 4.71L19.41 6L17.41 8L7.89 17.53L6.42 19L4.71 20.71A1 1 0 0 1 3.29 19.29L5.53 17L7.28 15.3L14.59 8L14.66 7.93L16 6.59L16.59 6L19.29 3.29A1 1 0 0 1 20.71 3.29A1 1 0 0 1 20.71 4.71z" />
    <glyph glyph-name="eye-off-2"
      unicode="&#xEA62;"
      horiz-adv-x="24" d="M0 24H24V0H0V24zM17.81 10.61A8.93 8.93 0 0 1 21 16.38A1 1 0 1 1 19 16.62A7.07 7.07 0 0 0 5 16.62A1 1 0 1 1 3 16.38A8.93 8.93 0 0 1 6.18 10.61L3.88 8.29A1 1 0 0 1 5.29 6.88L7.9 9.48A9.06 9.06 0 0 1 11 8.56V5A1 1 0 0 1 13 5V8.56A9.06 9.06 0 0 1 16.1 9.48L18.71 6.88A1 1 0 0 1 20.12 8.29z" />
    <glyph glyph-name="facebook"
      unicode="&#xEA63;"
      horiz-adv-x="24" d="M24 0L0 0L0 24L24 24L24 0zM17 20.5A0.5 0.5 0 0 1 16.5 21H14A4.77 4.77 0 0 1 9 16.5V13.8H6.5A0.5 0.5 0 0 1 6 13.3V10.7A0.5 0.5 0 0 1 6.5 10.2H9V3.5A0.5 0.5 0 0 1 9.5 3H12.5A0.5 0.5 0 0 1 13 3.5V10.2H15.62A0.5 0.5 0 0 1 16.11 10.57L16.83 13.17A0.5 0.5 0 0 1 16.35 13.8H13V16.5A1 1 0 0 0 14 17.4H16.5A0.5 0.5 0 0 1 17 17.9z" />
    <glyph glyph-name="file"
      unicode="&#xEA64;"
      horiz-adv-x="24" d="M0 24H24V0H0V24zM19.74 16.67L15.3 21.67A1 1 0 0 1 14.56 22H6.56A2.5300000000000002 2.5300000000000002 0 0 1 4 19.5V4.5A2.5300000000000002 2.5300000000000002 0 0 1 6.56 2H17.44A2.5300000000000002 2.5300000000000002 0 0 1 20 4.5V16A1 1 0 0 1 19.74 16.67zM14 20L17.74 16H14.74A0.79 0.79 0 0 0 14 16.85z" />
    <glyph glyph-name="file-add"
      unicode="&#xEA65;"
      horiz-adv-x="24" d="M0 24H24V0H0V24zM19.74 16.67L15.3 21.67A1 1 0 0 1 14.56 22H6.56A2.5300000000000002 2.5300000000000002 0 0 1 4 19.5V4.5A2.5300000000000002 2.5300000000000002 0 0 1 6.56 2H17.44A2.5300000000000002 2.5300000000000002 0 0 1 20 4.5V16A1 1 0 0 1 19.74 16.67zM14 9H13V8A1 1 0 0 0 11 8V9H10A1 1 0 0 0 10 11H11V12A1 1 0 0 0 13 12V11H14A1 1 0 0 0 14 9zM14.71 16A0.79 0.79 0 0 0 14 16.85V20L17.74 16z" />
    <glyph glyph-name="file-remove"
      unicode="&#xEA66;"
      horiz-adv-x="24" d="M0 24H24V0H0V24zM19.74 16.67L15.3 21.67A1 1 0 0 1 14.56 22H6.56A2.5300000000000002 2.5300000000000002 0 0 1 4 19.5V4.5A2.5300000000000002 2.5300000000000002 0 0 1 6.56 2H17.44A2.5300000000000002 2.5300000000000002 0 0 1 20 4.5V16A1 1 0 0 1 19.74 16.67zM14 9H10A1 1 0 0 0 10 11H14A1 1 0 0 0 14 9zM14.71 16A0.79 0.79 0 0 0 14 16.85V20L17.74 16z" />
    <glyph glyph-name="file-text"
      unicode="&#xEA67;"
      horiz-adv-x="24" d="M0 24H24V0H0V24zM19.74 16.67L15.3 21.67A1 1 0 0 1 14.56 22H6.56A2.5300000000000002 2.5300000000000002 0 0 1 4 19.5V4.5A2.5300000000000002 2.5300000000000002 0 0 1 6.56 2H17.44A2.5300000000000002 2.5300000000000002 0 0 1 20 4.5V16A1 1 0 0 1 19.74 16.67zM9 12H12A1 1 0 0 0 12 10H9A1 1 0 0 0 9 12zM15 6H9A1 1 0 0 0 9 8H15A1 1 0 0 0 15 6zM14.71 16A0.79 0.79 0 0 0 14 16.85V20L17.74 16z" />
    <glyph glyph-name="film"
      unicode="&#xEA68;"
      horiz-adv-x="24" d="M0 24H24V0H0V24zM18.26 21H5.74A2.74 2.74 0 0 1 3 18.26V5.74A2.74 2.74 0 0 1 5.74 3H18.26A2.74 2.74 0 0 1 21 5.74V18.26A2.74 2.74 0 0 1 18.26 21zM7 13H5V15H7zM5 11H7V9H5zM19 13H17V15H19zM17 11H19V9H17zM19 18.26V17H17V19H18.26A0.74 0.74 0 0 0 19 18.26zM5.74 19H7V17H5V18.26A0.74 0.74 0 0 0 5.74 19zM5 5.74V7H7V5H5.74A0.74 0.74 0 0 0 5 5.74zM19 5.74A0.74 0.74 0 0 0 18.26 5H17V7H19z" />
    <glyph glyph-name="flag"
      unicode="&#xEA69;"
      horiz-adv-x="24" d="M24 0L0 0L0 24M19.27 19.32A1.7899999999999998 1.7899999999999998 0 0 1 17.67 19.57A7.53 7.53 0 0 0 15.5 19.29A8.54 8.54 0 0 0 12.37 20.07A10.15 10.15 0 0 1 8.5 21C5.61 21 4.5 20 4.3 19.86A1 1 0 0 1 4 19.14V4A1 1 0 0 1 6 4V8.3A6.28 6.28 0 0 0 8.5 8.71A8.54 8.54 0 0 0 11.63 7.93A10.15 10.15 0 0 1 15.5 7A7.659999999999999 7.659999999999999 0 0 1 19 7.7A1.7400000000000002 1.7400000000000002 0 0 1 20 9.25V17.89A1.77 1.77 0 0 1 19.27 19.32z" />
    <glyph glyph-name="flash"
      unicode="&#xEA6A;"
      horiz-adv-x="24" d="M0 24H24V0H0V24zM11.11 1A1 1 0 0 0 10.77 1.06A1 1 0 0 0 10.12 2.11L10.89 9.2H5A1 1 0 0 0 4.17 10.76L12.06 22.56A1 1 0 0 0 13.23 22.94A1 1 0 0 0 13.88 21.94L13.11 14.8H19A1 1 0 0 0 19.83 13.24L11.94 1.44A1 1 0 0 0 11.11 1z" />
    <glyph glyph-name="flash-off"
      unicode="&#xEA6B;"
      horiz-adv-x="24" d="M0 24H24V0H0V24zM17.33 9.5L19.83 13.24A1 1 0 0 1 19 14.8H13.11L13.88 21.89A1 1 0 0 1 13.23 22.89A1 1 0 0 1 12.06 22.51L8.94 17.89zM6.67 14.5L4.17 10.76A1 1 0 0 1 5 9.2H10.89L10.12 2.11A1 1 0 0 1 10.77 1.06A1 1 0 0 1 11.11 1A1 1 0 0 1 11.94 1.44L15.06 6.11zM20.71 4.71L4.71 20.71A1 1 0 0 1 3.29 19.29L19.29 3.29A1 1 0 0 1 20.71 3.29A1 1 0 0 1 20.71 4.71z" />
    <glyph glyph-name="flip"
      unicode="&#xEA6C;"
      horiz-adv-x="24" d="M0 0L0 24L24 24L24 0L0 0zM5 17.91V5.91L3.71 7.21A1 1 0 0 1 2.29 5.79L5.29 2.79A1 1 0 0 1 6.71 2.79L9.71 5.79A1 1 0 0 1 9.71 7.21A1 1 0 0 1 8.29 7.21L7 5.91V17.91A1.56 1.56 0 0 0 8.53 19.5H11A1 1 0 0 1 11 21.5H8.53A3.5600000000000005 3.5600000000000005 0 0 1 5 17.91zM14.29 18.21A1 1 0 0 1 15.71 16.79L17 18.09V6.09A1.56 1.56 0 0 0 15.47 4.5H13A1 1 0 0 1 13 2.5H15.47A3.5600000000000005 3.5600000000000005 0 0 1 19 6.09V18.09L20.29 16.79A1 1 0 0 1 21.71 16.79A1 1 0 0 1 21.71 18.21L18.71 21.21A1 1 0 0 1 17.29 21.21z" />
    <glyph glyph-name="flip-2"
      unicode="&#xEA6D;"
      horiz-adv-x="24" d="M24 0L0 0L0 24L24 24L24 0zM6.09 5H18.09L16.79 3.71A1 1 0 0 1 18.21 2.29L21.21 5.29A1 1 0 0 1 21.21 6.71L18.21 9.71A1 1 0 0 1 16.79 9.71A1 1 0 0 1 16.79 8.29L18.09 7H6.09A1.56 1.56 0 0 0 4.5 8.53V11A1 1 0 0 1 2.5 11V8.53A3.5600000000000005 3.5600000000000005 0 0 1 6.09 5zM5.79 14.29A1 1 0 1 1 7.21 15.71L5.91 17H17.91A1.56 1.56 0 0 0 19.5 15.47V13A1 1 0 0 1 21.5 13V15.47A3.5600000000000005 3.5600000000000005 0 0 1 17.91 19H5.91L7.21 20.29A1 1 0 0 1 7.21 21.71A1 1 0 0 1 5.79 21.71L2.79 18.71A1 1 0 0 1 2.79 17.29z" />
    <glyph glyph-name="folder"
      unicode="&#xEA6E;"
      horiz-adv-x="24" d="M0 24H24V0H0V24zM19.5 3.5H4.5A2.47 2.47 0 0 0 2 5.93V18.07A2.47 2.47 0 0 0 4.5 20.5H9.1A1 1 0 0 0 9.87 20.13L12.47 16.95H19.47A2.47 2.47 0 0 0 22 14.52V5.93A2.47 2.47 0 0 0 19.5 3.5z" />
    <glyph glyph-name="folder-add"
      unicode="&#xEA6F;"
      horiz-adv-x="24" d="M0 24H24V0H0V24zM19.5 16.95H12.5L9.87 20.13A1 1 0 0 1 9.1 20.5H4.5A2.47 2.47 0 0 1 2 18.07V5.93A2.47 2.47 0 0 1 4.5 3.5H19.5A2.47 2.47 0 0 1 22 5.93V14.52A2.47 2.47 0 0 1 19.5 16.95zM14 9H13V8A1 1 0 0 0 11 8V9H10A1 1 0 0 0 10 11H11V12A1 1 0 0 0 13 12V11H14A1 1 0 0 0 14 9z" />
    <glyph glyph-name="folder-remove"
      unicode="&#xEA70;"
      horiz-adv-x="24" d="M0 24H24V0H0V24zM19.5 16.95H12.5L9.87 20.13A1 1 0 0 1 9.1 20.5H4.5A2.47 2.47 0 0 1 2 18.07V5.93A2.47 2.47 0 0 1 4.5 3.5H19.5A2.47 2.47 0 0 1 22 5.93V14.52A2.47 2.47 0 0 1 19.5 16.95zM14 9H10A1 1 0 0 0 10 11H14A1 1 0 0 0 14 9z" />
    <glyph glyph-name="funnel"
      unicode="&#xEA71;"
      horiz-adv-x="24" d="M0 24H24V0H0V24zM13.9 2A1 1 0 0 0 13.3 2.2L9.3 5.25A1 1 0 0 0 8.91 6.05V9.32L4.11 18.54A1 1 0 0 0 5 20H19A1 1 0 0 0 19.86 19.51A1 1 0 0 0 19.86 18.51L14.86 9.3V3A1 1 0 0 0 14.31 2.1A1 1 0 0 0 13.9 2z" />
    <glyph glyph-name="gift"
      unicode="&#xEA72;"
      horiz-adv-x="24" d="M24 0L0 0L0 24L24 24L24 0zM4.64 8.73V3.91A0.92 0.92 0 0 1 5.56 3H11.18V8.73zM12.82 3H18.44A0.92 0.92 0 0 1 19.36 3.91V8.73H12.82zM20.1 16.91H18.26A2.82 2.82 0 0 1 18.55 18.14A2.87 2.87 0 0 1 15.68 21A4.21 4.21 0 0 1 12 18.43A4.21 4.21 0 0 1 8.32 21A2.87 2.87 0 0 1 5.45 18.14A2.82 2.82 0 0 1 5.74 16.91H3.9C3.4 16.91 3 16.32 3 15.6V11.67C3 10.95 3.4 10.36 3.9 10.36H11.18V16.91H12.82V10.36H20.1C20.6 10.36 21 10.95 21 11.67V15.6C21 16.32 20.6 16.91 20.1 16.91zM8.32 16.91A1.23 1.23 0 1 0 8.32 19.36C9.72 19.36 10.51 17.92 10.9 16.91zM15.68 16.91H13.1C13.49 17.91 14.28 19.36 15.68 19.36A1.23 1.23 0 1 0 15.68 16.91z" />
    <glyph glyph-name="github"
      unicode="&#xEA73;"
      horiz-adv-x="24" d="M24 0L0 0L0 24L24 24L24 0zM12 23A10.89 10.89 0 0 1 1 12.23A10.79 10.79 0 0 1 8.52 2C9.07 1.9 9.27 2.23 9.27 2.52S9.27 3.45 9.27 4.35C6.21 3.7 5.56 5.79 5.56 5.79A2.86 2.86 0 0 1 4.34 7.37C3.34 8.03 4.42 8.02 4.42 8.02A2.31 2.31 0 0 0 6.1 6.91A2.37 2.37 0 0 1 9.3 6.02A2.33 2.33 0 0 0 10 7.46C7.56 7.73 5 8.65 5 12.78A4.15 4.15 0 0 0 6.11 15.69A3.7800000000000002 3.7800000000000002 0 0 0 6.22 18.53S7.15 18.82 9.22 17.43A10.68 10.68 0 0 0 14.72 17.43C16.82 18.82 17.72 18.53 17.72 18.53A3.7800000000000002 3.7800000000000002 0 0 0 17.83 15.69A4.15 4.15 0 0 0 19 12.8C19 8.66 16.42 7.75 14 7.48A2.5 2.5 0 0 0 14.75 5.48C14.75 4.04 14.75 2.88 14.75 2.53S14.95 1.9 15.5 2.01A10.8 10.8 0 0 1 23 12.23A10.89 10.89 0 0 1 12 23" />
    <glyph glyph-name="globe"
      unicode="&#xEA74;"
      horiz-adv-x="24" d="M24 0L0 0L0 24L24 24L24 0zM22 12A10 10 0 0 1 12 22H12A10 10 0 0 1 12 2H12A10 10 0 0 1 22 12zM19.93 13H17A12.91 12.91 0 0 1 14.67 19.54A8 8 0 0 0 19.93 13zM9.08 11H15A11.44 11.44 0 0 0 12 4.39A11 11 0 0 0 9.08 11zM9.08 13A11.4 11.4 0 0 0 12 19.6A11.19 11.19 0 0 0 15 13zM9.44 19.57A13.18 13.18 0 0 1 7.07 13H4.07A8 8 0 0 0 9.44 19.57zM4.07 11H7.07A12.86 12.86 0 0 1 9.42 4.44A8 8 0 0 0 4.07 11zM14.62 4.45A13.14 13.14 0 0 1 17 11H19.95A8 8 0 0 0 14.62 4.45z" />
    <glyph glyph-name="globe-2"
      unicode="&#xEA75;"
      horiz-adv-x="24" d="M0 24H24V0H0V24zM0 24H24V0H0V24zM12 22A10 10 0 1 1 22 12A10 10 0 0 1 12 22zM12 20A8.19 8.19 0 0 0 13.79 19.79A2.61 2.61 0 0 0 13.01 18.79C12.79 18.62 12.55 18.48 12.31 18.33A4.56 4.56 0 0 1 10.46 16.66A6.49 6.49 0 0 1 9.84 13.36C9.84 12 9.84 11.2 8.89 10.49C7.52 9.42 5.43 10.02 4.13 10.56A8.33 8.33 0 0 0 4 12A8 8 0 0 0 12 20zM16.89 5.68A6.79 6.79 0 0 1 16.26 6.82C16.15 6.98 16.04 7.14 15.94 7.31C15.55 7.99 15.69 8.31 16.32 9.31L16.42 9.48A4.77 4.77 0 0 1 17 11.91A5.42 5.42 0 0 0 17.09 12.91C17.25 13.64 18.8 13.84 19.76 13.91A7.9399999999999995 7.9399999999999995 0 0 0 16.9 5.63z" />
    <glyph glyph-name="globe-3"
      unicode="&#xEA76;"
      horiz-adv-x="24" d="M0 24H24V0H0V24zM0 24H24V0H0V24zM12 22A10 10 0 1 1 22 12A10 10 0 0 1 12 22zM5 8.2A8.42 8.42 0 0 1 7 7.93A5 5 0 0 1 10.14 8.93C11.85 10.27 11.85 11.99 11.85 13.37A4.76 4.76 0 0 0 12.22 15.71A2.86 2.86 0 0 0 13.34 16.62A9.75 9.75 0 0 1 14.26 17.23A4.55 4.55 0 0 1 15.66 19.1A8 8 0 0 0 19 15.88C17.57 15.68 15.54 15.21 15.14 13.35A7 7 0 0 1 15 12A2.93 2.93 0 0 0 14.71 10.53L14.61 10.36C13.96 9.28 13.23 8.05 14.22 6.36C14.34 6.15 14.47 5.95 14.6 5.75A2.29 2.29 0 0 0 15.12 4.67A7.89 7.89 0 0 0 12 4A8 8 0 0 0 5 8.2z" />
    <glyph glyph-name="google"
      unicode="&#xEA77;"
      horiz-adv-x="24" d="M0 24L24 24L24 0L0 0M17.5 10A5.51 5.51 0 0 0 13 6.07A6.15 6.15 0 0 0 6 11.52A6 6 0 0 0 12 18A6.12 6.12 0 0 0 14.27 17.56A0.5 0.5 0 0 1 14.91 17.77L16.35 20.42A0.52 0.52 0 0 1 16.12 21.12A10 10 0 0 1 2 11.71A10.120000000000001 10.120000000000001 0 0 1 11.57 2A10 10 0 0 1 22 11.48C22 11.68 22 12.83 22 13.48A0.51 0.51 0 0 1 21.5 13.98H12.5A0.5 0.5 0 0 1 12 13.48V10.48A0.5 0.5 0 0 1 12.5 9.98H17.5" />
    <glyph glyph-name="grid"
      unicode="&#xEA78;"
      horiz-adv-x="24" d="M0 24H24V0H0V24zM9 21H5A2 2 0 0 1 3 19V15A2 2 0 0 1 5 13H9A2 2 0 0 1 11 15V19A2 2 0 0 1 9 21zM19 21H15A2 2 0 0 1 13 19V15A2 2 0 0 1 15 13H19A2 2 0 0 1 21 15V19A2 2 0 0 1 19 21zM9 11H5A2 2 0 0 1 3 9V5A2 2 0 0 1 5 3H9A2 2 0 0 1 11 5V9A2 2 0 0 1 9 11zM19 11H15A2 2 0 0 1 13 9V5A2 2 0 0 1 15 3H19A2 2 0 0 1 21 5V9A2 2 0 0 1 19 11z" />
    <glyph glyph-name="hard-drive"
      unicode="&#xEA79;"
      horiz-adv-x="24" d="M0 24H24V0H0V24zM20.79 12.66L17.45 19.34A3 3 0 0 1 14.76 21H9.24A3 3 0 0 1 6.55 19.34L3.21 12.66A2 2 0 0 1 3 11.76V6A3 3 0 0 1 6 3H18A3 3 0 0 1 21 6V11.76A2 2 0 0 1 20.79 12.66zM8 7A1 1 0 1 0 9 8A1 1 0 0 0 8 7zM16 7H12A1 1 0 0 0 12 9H16A1 1 0 0 0 16 7zM5.62 13L8.34 18.45A1 1 0 0 0 9.24 19H14.76A1 1 0 0 0 15.66 18.45L18.38 13z" />
    <glyph glyph-name="hash"
      unicode="&#xEA7A;"
      horiz-adv-x="24" d="M24 0L0 0L0 24L24 24L24 0zM20 10H15.7L16.43 14H20A1 1 0 0 1 20 16H16.79L17.48 19.81A1 1 0 0 1 16.64 21A1 1 0 0 1 15.42 20.18L14.67 16H10.79L11.48 19.81A1 1 0 0 1 10.64 21A1 1 0 0 1 9.42 20.18L8.67 16H4A1 1 0 0 1 4 14H8.3L7.57 10H4A1 1 0 0 1 4 8H7.21L6.52 4.19A1 1 0 0 1 7.36 3H7.36A1 1 0 0 1 8.58 3.82L9.33 8H13.21L12.52 4.19A1 1 0 0 1 13.36 3H13.36A1 1 0 0 1 14.58 3.82L15.33 8H20A1 1 0 0 1 20 10zM9.7 10L10.43 14H14.3L13.57 10z" />
    <glyph glyph-name="headphones"
      unicode="&#xEA7B;"
      horiz-adv-x="24" d="M0 24H24V0H0V24zM12 22A10.2 10.2 0 0 1 2 11.63V7A4 4 0 1 1 6 11A3.9099999999999997 3.9099999999999997 0 0 1 4 10.44V11.63A8.200000000000001 8.200000000000001 0 0 0 12 20A8.200000000000001 8.200000000000001 0 0 0 20 11.63V10.44A3.9099999999999997 3.9099999999999997 0 0 1 18 11A4 4 0 1 1 22 7V11.63A10.2 10.2 0 0 1 12 22z" />
    <glyph glyph-name="heart"
      unicode="&#xEA7C;"
      horiz-adv-x="24" d="M0 24H24V0H0V24zM12 3H12A1 1 0 0 0 11.29 3.29L3.52 11.07A5.26 5.26 0 0 0 3.52 18.47A5.24 5.24 0 0 0 10.92 18.47L12 17.39L13.08 18.47A5.24 5.24 0 0 0 20.48 18.47A5.26 5.26 0 0 0 20.48 11.07L12.71 3.29A1 1 0 0 0 12 3z" />
    <glyph glyph-name="home"
      unicode="&#xEA7D;"
      horiz-adv-x="24" d="M0 24H24V0H0V24zM10 10H14V3H10V10zM20.42 13.82L12.71 21.7A1 1 0 0 1 11.29 21.7L3.58 13.81A2 2 0 0 1 3 12.38V4A2 2 0 0 1 4.89 2H8V11A1 1 0 0 0 9 12H15A1 1 0 0 0 16 11V2H19.11A2 2 0 0 1 21 4V12.38A2.07 2.07 0 0 1 20.42 13.82z" />
    <glyph glyph-name="image"
      unicode="&#xEA7E;"
      horiz-adv-x="24" d="M0 24H24V0H0V24zM18 21H6A3 3 0 0 1 3 18V6A3 3 0 0 1 6 3H18A3 3 0 0 1 21 6V18A3 3 0 0 1 18 21zM6 19H18A1 1 0 0 0 19 18V9.64L15.8 12.37A2.77 2.77 0 0 1 12.28 12.37L5 6.3V18A1 1 0 0 0 6 19zM6.5 15.5A1.5 1.5 0 0 1 9.5 15.5A1.5 1.5 0 0 1 6.5 15.5" />
    <glyph glyph-name="image-2"
      unicode="&#xEA7F;"
      horiz-adv-x="24" d="M0 24H24V0H0V24zM18 21H6A3 3 0 0 1 3 18V6A3 3 0 0 1 6 3H18A3 3 0 0 1 21 6V18A3 3 0 0 1 18 21zM8 17A1.5 1.5 0 1 0 6.5 15.5A1.5 1.5 0 0 0 8 17zM19 6.17A1.09 1.09 0 0 0 18 5H6L13.57 11.82A0.69 0.69 0 0 0 14.5 11.82L19 7.34z" />
    <glyph glyph-name="inbox"
      unicode="&#xEA80;"
      horiz-adv-x="24" d="M24 0L0 0L0 24L24 24L24 0zM20.79 12.66L17.45 19.34A3 3 0 0 1 14.76 21H9.24A3 3 0 0 1 6.55 19.34L3.21 12.66A2 2 0 0 1 3 11.76V6A3 3 0 0 1 6 3H18A3 3 0 0 1 21 6V11.76A2 2 0 0 1 20.79 12.66zM8.34 18.45A1 1 0 0 0 9.24 19H14.76A1 1 0 0 0 15.66 18.45L18.38 13H16A1 1 0 0 1 15 12V10A1 1 0 0 0 14 9H10A1 1 0 0 0 9 10V12A1 1 0 0 1 8 13H5.62z" />
    <glyph glyph-name="info"
      unicode="&#xEA81;"
      horiz-adv-x="24" d="M24 0L0 0L0 24L24 24L24 0zM12 22A10 10 0 1 1 22 12A10 10 0 0 1 12 22zM13 8A1 1 0 0 0 11 8V13A1 1 0 0 0 13 13zM12 15A1 1 0 1 0 13 16A1 1 0 0 0 12 15z" />
    <glyph glyph-name="keypad"
      unicode="&#xEA82;"
      horiz-adv-x="24" d="M0 24H24V0H0V24zM5 22A3 3 0 1 1 8 19A3 3 0 0 1 5 22zM12 22A3 3 0 1 1 15 19A3 3 0 0 1 12 22zM19 16A3 3 0 1 1 16 19A3 3 0 0 1 19 16zM5 15A3 3 0 1 1 8 12A3 3 0 0 1 5 15zM12 15A3 3 0 1 1 15 12A3 3 0 0 1 12 15zM19 15A3 3 0 1 1 22 12A3 3 0 0 1 19 15zM5 8A3 3 0 1 1 8 5A3 3 0 0 1 5 8zM12 8A3 3 0 1 1 15 5A3 3 0 0 1 12 8zM19 8A3 3 0 1 1 22 5A3 3 0 0 1 19 8z" />
    <glyph glyph-name="layers"
      unicode="&#xEA83;"
      horiz-adv-x="24" d="M24 0L0 0L0 24L24 24L24 0zM3.24 16.71L11.76 12.08A0.51 0.51 0 0 1 12.24 12.08L20.76 16.71A0.43999999999999995 0.43999999999999995 0 0 1 20.71 17.52L12.19 21A0.5 0.5 0 0 1 11.81 21L3.29 17.52A0.43999999999999995 0.43999999999999995 0 0 1 3.24 16.71zM20.71 13.34L18.88 14.12L12.24 10.51A0.51 0.51 0 0 0 11.76 10.51L5.12 14.12L3.29 13.34A0.48 0.48 0 0 1 3.29 12.49L11.81 7.59A0.46 0.46 0 0 1 12.29 7.59L20.81 12.49A0.48 0.48 0 0 1 20.71 13.34zM20.71 8.9L19.15 9.58L12.24 5.82A0.51 0.51 0 0 0 11.76 5.82L4.85 9.58L3.29 8.9A0.49 0.49 0 0 1 3.29 8.03L11.81 3.03A0.51 0.51 0 0 1 12.29 3.03L20.81 8.03A0.49 0.49 0 0 1 20.71 8.9z" />
    <glyph glyph-name="layout"
      unicode="&#xEA84;"
      horiz-adv-x="24" d="M0 24H24V0H0V24zM21 16V18A3 3 0 0 1 18 21H6A3 3 0 0 1 3 18V16zM3 14V6A3 3 0 0 1 6 3H11V14zM13 14V3H18A3 3 0 0 1 21 6V14z" />
    <glyph glyph-name="link"
      unicode="&#xEA85;"
      horiz-adv-x="24" d="M0 24H24V0H0V24zM8 12A1 1 0 0 1 9 11H15A1 1 0 0 1 15 13H9A1 1 0 0 1 8 12zM9 8H7.21A4.13 4.13 0 0 0 3 11.63A4 4 0 0 0 7 16H9A1 1 0 0 1 9 18H7.21A6.15 6.15 0 0 1 1.05 12.79A6 6 0 0 1 7 6H9A1 1 0 0 1 9 8zM23 12.76A6.16 6.16 0 0 1 16.76 18H15.25C14.44 18 14 17.55 14 17A1 1 0 0 1 15 16H16.79A4.13 4.13 0 0 0 21 12.37A4 4 0 0 0 17 8H15A1 1 0 0 1 15 6H17A6 6 0 0 1 23 12.76z" />
    <glyph glyph-name="link-2"
      unicode="&#xEA86;"
      horiz-adv-x="24" d="M0 24H24V0H0V24zM13.29 14.71L9.29 10.71A1 1 0 0 1 9.29 9.29A1 1 0 0 1 10.71 9.29L14.71 13.29A1 1 0 0 1 13.29 14.71zM12.28 6.6L11 5.33A4.2 4.2 0 0 0 5.42 4.93A4 4 0 0 0 5.15 10.86L6.57 12.29A1 1 0 0 1 6.57 13.71A1 1 0 0 1 5.15 13.71L3.88 12.43A6.15 6.15 0 0 1 3.21 4.36A6.0600000000000005 6.0600000000000005 0 0 1 12.28 3.76L13.7 5.18A1 1 0 0 1 12.28 6.6zM19.66 20.78A6.180000000000001 6.180000000000001 0 0 1 11.53 20.1L10.45 19A1.09 1.09 0 0 1 10.28 17.39A1 1 0 0 1 11.7 17.39L13 18.7A4.17 4.17 0 0 0 18.57 19.1A4 4 0 0 0 18.84 13.15L17.42 11.72A1 1 0 0 1 17.42 10.3A1 1 0 0 1 18.84 10.3L20.26 11.72A6.0600000000000005 6.0600000000000005 0 0 1 19.66 20.78z" />
    <glyph glyph-name="linkedin"
      unicode="&#xEA87;"
      horiz-adv-x="24" d="M24 0L0 0L0 24L24 24L24 0zM15.15 15.6A5.83 5.83 0 0 1 9.3 9.78V3.9A0.8999999999999999 0.8999999999999999 0 0 1 10.2 3H12.3A0.8999999999999999 0.8999999999999999 0 0 1 13.2 3.9V9.78A1.9399999999999997 1.9399999999999997 0 0 0 15.35 11.71A2 2 0 0 0 17.1 9.71V3.9A0.8999999999999999 0.8999999999999999 0 0 1 18 3H20.1A0.8999999999999999 0.8999999999999999 0 0 1 21 3.9V9.78A5.83 5.83 0 0 1 15.15 15.6zM3.9 14.7H6.6A0.8999999999999999 0.8999999999999999 0 0 0 7.5 13.8V3.9A0.8999999999999999 0.8999999999999999 0 0 0 6.6 3H3.9A0.8999999999999999 0.8999999999999999 0 0 0 3 3.9V13.8A0.8999999999999999 0.8999999999999999 0 0 0 3.9 14.7zM3 18.75A2.25 2.25 0 0 1 7.5 18.75A2.25 2.25 0 0 1 3 18.75" />
    <glyph glyph-name="list"
      unicode="&#xEA88;"
      horiz-adv-x="24" d="M24 0L0 0L0 24L24 24L24 0zM3 17A1 1 0 0 1 5 17A1 1 0 0 1 3 17M3 12A1 1 0 0 1 5 12A1 1 0 0 1 3 12M3 7A1 1 0 0 1 5 7A1 1 0 0 1 3 7M7.94 13H20.06A0.9400000000000001 0.9400000000000001 0 0 0 21 12.06V11.94A0.9400000000000001 0.9400000000000001 0 0 0 20.06 11H7.94A0.9400000000000001 0.9400000000000001 0 0 0 7 11.94V12.06A0.9400000000000001 0.9400000000000001 0 0 0 7.94 13zM7.94 8H20.06A0.9400000000000001 0.9400000000000001 0 0 0 21 7.06V6.94A0.9400000000000001 0.9400000000000001 0 0 0 20.06 6H7.94A0.9400000000000001 0.9400000000000001 0 0 0 7 6.94V7.06A0.9400000000000001 0.9400000000000001 0 0 0 7.94 8zM7.94 18H20.06A0.9400000000000001 0.9400000000000001 0 0 0 21 17.06V16.94A0.9400000000000001 0.9400000000000001 0 0 0 20.06 16H7.94A0.9400000000000001 0.9400000000000001 0 0 0 7 16.94V17.06A0.9400000000000001 0.9400000000000001 0 0 0 7.94 18z" />
    <glyph glyph-name="lock"
      unicode="&#xEA89;"
      horiz-adv-x="24" d="M0 24H24V0H0V24zM11 9A1 1 0 0 1 13 9A1 1 0 0 1 11 9M17 16H16V17.89A4 4 0 1 1 8 17.89V16H7A3 3 0 0 1 4 13V5A3 3 0 0 1 7 2H17A3 3 0 0 1 20 5V13A3 3 0 0 1 17 16zM10 17.89A2.06 2.06 0 0 0 12 20A2.06 2.06 0 0 0 14 17.89V16H10zM12 6A3 3 0 1 0 15 9A3 3 0 0 0 12 6z" />
    <glyph glyph-name="log-in"
      unicode="&#xEA8A;"
      horiz-adv-x="24" d="M0 0L0 24L24 24L24 0L0 0zM19 20H17A1 1 0 0 1 17 18H18V6H17A1 1 0 0 1 17 4H19A1 1 0 0 1 20 5V19A1 1 0 0 1 19 20zM11.8 16.6A1 1 0 0 1 10.2 15.4L12 13H4A1 1 0 0 1 4 11H12L12.09 11L10.37 8.56A1 1 0 0 1 10.61 7.16A1 1 0 0 1 11.19 6.98A1 1 0 0 1 12 7.4L14.82 11.4A1 1 0 0 1 14.82 12.58z" />
    <glyph glyph-name="log-out"
      unicode="&#xEA8B;"
      horiz-adv-x="24" d="M24 24L24 0L0 0L0 24L24 24zM7 18A1 1 0 0 1 7 20H5A1 1 0 0 1 4 19V5A1 1 0 0 1 5 4H7A1 1 0 0 1 7 6H6V18zM20.82 12.58L18 16.58A1 1 0 0 1 16.61 16.82A1 1 0 0 1 16.37 15.42L18.09 13L18 13H10A1 1 0 0 1 10 11H18L16.2 8.6A1 1 0 0 1 16.4 7.2A1 1 0 0 1 17 7A1 1 0 0 1 17.8 7.4L20.8 11.4A1 1 0 0 1 20.82 12.58z" />
    <glyph glyph-name="map"
      unicode="&#xEA8C;"
      horiz-adv-x="24" d="M24 0L0 0L0 24L24 24L24 0zM20.41 18.11L16.41 19.91L16.36 19.91L16.24 19.91L16.12 19.91H15.87L15.77 19.91L15.64 19.91L15.59 19.91L12 18.3L8.41 19.91L8.36 19.91L8.24 20L8.12 20H7.87L7.77 20L7.64 20L7.64 20L3.64 18.2A1 1 0 0 1 3 17.2V5A1 1 0 0 1 3.46 4.16A1 1 0 0 1 4 4A1 1 0 0 1 4.41 4.09L8 5.7L11.59 4.09H11.64A0.85 0.85 0 0 1 12.36 4.09H12.41L16 5.7L19.59 4.09A1 1 0 0 1 20 4A1 1 0 0 1 20.54 4.16A1 1 0 0 1 21 5V17.2A1 1 0 0 1 20.41 18.11zM9 17.45L11 16.56V6.56L9 7.45zM19 6.55L17 7.44V17.44L19 16.55z" />
    <glyph glyph-name="maximize"
      unicode="&#xEA8D;"
      horiz-adv-x="24" d="M0 24H24V0H0V24zM20.71 4.71L17.31 8.1A7.92 7.92 0 0 1 19 13A8 8 0 1 1 11 5A7.92 7.92 0 0 1 15.9 6.69L19.29 3.29A1 1 0 0 1 20.71 3.29A1 1 0 0 1 20.71 4.71zM13 12H12V11A1 1 0 0 0 10 11V12H9A1 1 0 0 0 9 14H10V15A1 1 0 0 0 12 15V14H13A1 1 0 0 0 13 12z" />
    <glyph glyph-name="menu"
      unicode="&#xEA8E;"
      horiz-adv-x="24" d="M24 0L0 0L0 24L24 24L24 0zM3.95 13H20.05A0.9500000000000001 0.9500000000000001 0 0 0 21 12.05V11.95A0.9500000000000001 0.9500000000000001 0 0 0 20.05 11H3.95A0.9500000000000001 0.9500000000000001 0 0 0 3 11.95V12.05A0.9500000000000001 0.9500000000000001 0 0 0 3.95 13zM3.95 8H20.05A0.9500000000000001 0.9500000000000001 0 0 0 21 7.05V6.95A0.9500000000000001 0.9500000000000001 0 0 0 20.05 6H3.95A0.9500000000000001 0.9500000000000001 0 0 0 3 6.95V7.05A0.9500000000000001 0.9500000000000001 0 0 0 3.95 8zM3.95 18H20.05A0.9500000000000001 0.9500000000000001 0 0 0 21 17.05V16.95A0.9500000000000001 0.9500000000000001 0 0 0 20.05 16H3.95A0.9500000000000001 0.9500000000000001 0 0 0 3 16.95V17.05A0.9500000000000001 0.9500000000000001 0 0 0 3.95 18z" />
    <glyph glyph-name="menu-2"
      unicode="&#xEA8F;"
      horiz-adv-x="24" d="M24 0L0 0L0 24L24 24L24 0zM3 12A1 1 0 0 1 5 12A1 1 0 0 1 3 12M7.94 13H20.06A0.9400000000000001 0.9400000000000001 0 0 0 21 12.06V11.94A0.9400000000000001 0.9400000000000001 0 0 0 20.06 11H7.94A0.9400000000000001 0.9400000000000001 0 0 0 7 11.94V12.06A0.9400000000000001 0.9400000000000001 0 0 0 7.94 13zM3.94 8H20.06A0.9400000000000001 0.9400000000000001 0 0 0 21 7.06V6.94A0.9400000000000001 0.9400000000000001 0 0 0 20.06 6H3.94A0.9400000000000001 0.9400000000000001 0 0 0 3 6.94V7.06A0.9400000000000001 0.9400000000000001 0 0 0 3.94 8zM3.94 18H20.06A0.9400000000000001 0.9400000000000001 0 0 0 21 17.06V16.94A0.9400000000000001 0.9400000000000001 0 0 0 20.06 16H3.94A0.9400000000000001 0.9400000000000001 0 0 0 3 16.94V17.06A0.9400000000000001 0.9400000000000001 0 0 0 3.94 18z" />
    <glyph glyph-name="menu-arrow"
      unicode="&#xEA90;"
      horiz-adv-x="24" d="M24 0L0 0L0 24L24 24L24 0zM20.05 13H5.91L7.21 14.29A1 1 0 0 1 5.79 15.71L2.79 12.71A1 1 0 0 1 2.79 11.29L5.79 8.29A1 1 0 0 1 7.21 8.29A1 1 0 0 1 7.21 9.71L5.91 11H20.05A1 1 0 0 1 21 11.95V12A1 1 0 0 1 20.05 13zM3.95 7H20.05A0.9500000000000001 0.9500000000000001 0 0 0 21 6.05V5.95A0.9500000000000001 0.9500000000000001 0 0 0 20.05 5H3.95A0.9500000000000001 0.9500000000000001 0 0 0 3 5.95V6.05A0.9500000000000001 0.9500000000000001 0 0 0 3.95 7zM3.95 19H20.05A0.9500000000000001 0.9500000000000001 0 0 0 21 18.05V17.95A0.9500000000000001 0.9500000000000001 0 0 0 20.05 17H3.95A0.9500000000000001 0.9500000000000001 0 0 0 3 17.95V18.05A0.9500000000000001 0.9500000000000001 0 0 0 3.95 19z" />
    <glyph glyph-name="message-circle"
      unicode="&#xEA91;"
      horiz-adv-x="24" d="M0 24H24V0H0V24zM19.07 19.07A10 10 0 0 1 2.79 8.07A1.06 1.06 0 0 0 2.88 7.43L2 3.2A1 1 0 0 1 2.27 2.29A1 1 0 0 1 3 2L3.2 2L7.48 2.86A1.26 1.26 0 0 0 8.12 2.77A10 10 0 0 1 19.12 19.05zM8 11A1 1 0 1 0 9 12A1 1 0 0 0 8 11zM12 11A1 1 0 1 0 13 12A1 1 0 0 0 12 11zM16 11A1 1 0 1 0 17 12A1 1 0 0 0 16 11z" />
    <glyph glyph-name="message-square"
      unicode="&#xEA92;"
      horiz-adv-x="24" d="M0 24H24V0H0V24zM19 21H5A3 3 0 0 1 2 18V3A1 1 0 0 1 2.51 2.13A1 1 0 0 1 3 2A1 1 0 0 1 3.51 2.14L8 4.86A1 1 0 0 0 8.55 5H19A3 3 0 0 1 22 8V18A3 3 0 0 1 19 21zM8 12A1 1 0 1 0 9 13A1 1 0 0 0 8 12zM12 12A1 1 0 1 0 13 13A1 1 0 0 0 12 12zM16 12A1 1 0 1 0 17 13A1 1 0 0 0 16 12z" />
    <glyph glyph-name="mic"
      unicode="&#xEA93;"
      horiz-adv-x="24" d="M0 24H24V0H0V24zM12 9A4 4 0 0 1 16 13V18A4 4 0 0 1 8 18V13A4 4 0 0 1 12 9zM19 13A1 1 0 0 1 17 13A5 5 0 0 0 7 13A1 1 0 0 1 5 13A7 7 0 0 1 11 6.08V4H8.89A0.8900000000000001 0.8900000000000001 0 0 1 8 3.11V2.89A0.8900000000000001 0.8900000000000001 0 0 1 8.89 2H15.11A0.8900000000000001 0.8900000000000001 0 0 1 16 2.89V3.11A0.8900000000000001 0.8900000000000001 0 0 1 15.11 4H13V6.08A7 7 0 0 1 19 13z" />
    <glyph glyph-name="mic-off"
      unicode="&#xEA94;"
      horiz-adv-x="24" d="M0 24H24V0H0V24zM15.58 11.25A4 4 0 0 1 16 13V18A4 4 0 0 1 8.08 18.75M19 13A1 1 0 0 1 17 13A4.86 4.86 0 0 0 16.31 10.52L17.78 9A7 7 0 0 1 19 13zM12 9L12.16 9L8 13.17V13A4 4 0 0 1 12 9zM20.71 4.71L4.71 20.71A1 1 0 0 1 3.29 19.29L19.29 3.29A1 1 0 0 1 20.71 3.29A1 1 0 0 1 20.71 4.71zM15 4H13V6.08A7 7 0 0 1 14.65 6.52L13.05 8.12A4.57 4.57 0 0 0 12 8A5 5 0 0 0 7 13A1 1 0 0 1 5 13A7 7 0 0 1 11 6.08V4H9A1 1 0 0 1 9 2H15A1 1 0 0 1 15 4z" />
    <glyph glyph-name="minimize"
      unicode="&#xEA95;"
      horiz-adv-x="24" d="M0 24H24V0H0V24zM20.71 4.71L17.31 8.1A7.92 7.92 0 0 1 19 13A8 8 0 1 1 11 5A7.92 7.92 0 0 1 15.9 6.69L19.29 3.29A1 1 0 0 1 20.71 3.29A1 1 0 0 1 20.71 4.71zM13 12H9A1 1 0 0 0 9 14H13A1 1 0 0 0 13 12z" />
    <glyph glyph-name="minus"
      unicode="&#xEA96;"
      horiz-adv-x="24" d="M24 0L0 0L0 24L24 24L24 0zM19 11H5A1 1 0 0 0 5 13H19A1 1 0 0 0 19 11z" />
    <glyph glyph-name="minus-circle"
      unicode="&#xEA97;"
      horiz-adv-x="24" d="M0 24H24V0H0V24zM12 22A10 10 0 1 1 22 12A10 10 0 0 1 12 22zM15 11H9A1 1 0 0 0 9 13H15A1 1 0 0 0 15 11z" />
    <glyph glyph-name="minus-square"
      unicode="&#xEA98;"
      horiz-adv-x="24" d="M0 24H24V0H0V24zM18 21H6A3 3 0 0 1 3 18V6A3 3 0 0 1 6 3H18A3 3 0 0 1 21 6V18A3 3 0 0 1 18 21zM15 11H9A1 1 0 0 0 9 13H15A1 1 0 0 0 15 11z" />
    <glyph glyph-name="monitor"
      unicode="&#xEA99;"
      horiz-adv-x="24" d="M0 24H24V0H0V24zM19 21H5A3 3 0 0 1 2 18V13H22V18A3 3 0 0 1 19 21zM2 10A3 3 0 0 1 5 7H11V5H7A1 1 0 0 1 7 3H17A1 1 0 0 1 17 5H13V7H19A3 3 0 0 1 22 10V11H2z" />
    <glyph glyph-name="moon"
      unicode="&#xEA9A;"
      horiz-adv-x="24" d="M0 24H24V0H0V24zM12.3 2H12.2A10.31 10.31 0 0 0 4.86 5.15A10.46 10.46 0 0 0 4.6 19.15A10.13 10.13 0 0 0 8.6 21.89A1 1 0 0 0 9.66 21.67A1 1 0 0 0 9.9 20.67A8.4 8.4 0 0 1 11.84 11.86A8.47 8.47 0 0 1 20.67 9.92A1 1 0 0 0 21.94 8.63A10.16 10.16 0 0 0 19.6 5A10.28 10.28 0 0 0 12.3 2z" />
    <glyph glyph-name="more-horizotnal"
      unicode="&#xEA9B;"
      horiz-adv-x="24" d="M0 24H24V0H0V24zM10 12A2 2 0 0 1 14 12A2 2 0 0 1 10 12M17 12A2 2 0 0 1 21 12A2 2 0 0 1 17 12M3 12A2 2 0 0 1 7 12A2 2 0 0 1 3 12" />
    <glyph glyph-name="more-vertical"
      unicode="&#xEA9C;"
      horiz-adv-x="24" d="M0 0L0 24L24 24L24 0L0 0zM10 12A2 2 0 0 1 14 12A2 2 0 0 1 10 12M10 19A2 2 0 0 1 14 19A2 2 0 0 1 10 19M10 5A2 2 0 0 1 14 5A2 2 0 0 1 10 5" />
    <glyph glyph-name="move"
      unicode="&#xEA9D;"
      horiz-adv-x="24" d="M24 0L0 0L0 24L24 24L24 0zM21.71 12.69L18.71 15.69A1 1 0 0 1 17.29 14.27L18.58 13H13V18.59L14.29 17.29A1 1 0 0 1 15 17A1 1 0 0 1 15.71 17.29A1 1 0 0 1 15.71 18.71L12.71 21.71A1 1 0 0 1 12 22A1 1 0 0 1 11.3 21.71L8.3 18.71A1 1 0 0 1 9.71 17.29L11 18.58V13H5.41L6.71 14.29A1 1 0 0 1 5.29 15.71L2.29 12.71A1 1 0 0 1 2 12A1 1 0 0 1 2.29 11.29L5.29 8.29A1 1 0 0 1 6 8A1 1 0 0 1 6.71 8.29A1 1 0 0 1 6.71 9.71L5.42 11H11V5.41L9.71 6.71A1 1 0 0 1 8.29 5.29L11.29 2.29A1 1 0 0 1 12 2H12A1 1 0 0 1 12.7 2.29L15.7 5.29A1 1 0 0 1 14.28 6.71L13 5.42V11H18.59L17.29 9.71A1 1 0 0 1 17.29 8.29A1 1 0 0 1 18 8A1 1 0 0 1 18.71 8.29L21.71 11.29A1 1 0 0 1 22 12A1 1 0 0 1 21.71 12.69z" />
    <glyph glyph-name="music"
      unicode="&#xEA9E;"
      horiz-adv-x="24" d="M0 24H24V0H0V24zM19 9V20A1 1 0 0 1 18.62 20.78A1 1 0 0 1 17.78 20.98L8.78 18.98A1 1 0 0 1 8 18V9.66A3.49 3.49 0 1 1 10 6.48A4.36 4.36 0 0 1 10 7V17.2L17 18.75V11.66A3.49 3.49 0 1 1 19 8.49A4.57 4.57 0 0 1 19 9z" />
    <glyph glyph-name="navigation"
      unicode="&#xEA9F;"
      horiz-adv-x="24" d="M0 24H24V0H0V24zM20 4A0.9400000000000001 0.9400000000000001 0 0 0 19.45 4.17L12.55 8.73A1 1 0 0 1 11.45 8.73L4.55 4.17A1 1 0 0 0 3.11 5.45L11.11 21.45A1 1 0 0 0 12.89 21.45L20.89 5.45A1 1 0 0 0 20.66 4.25A1 1 0 0 0 20 4z" />
    <glyph glyph-name="navigation-2"
      unicode="&#xEAA0;"
      horiz-adv-x="24" d="M0 24H24V0H0V24zM13.67 2H13.61A1 1 0 0 0 12.69 2.8L11.15 10.37A1 1 0 0 1 10.37 11.15L2.8 12.69A1 1 0 0 0 2.68 14.62L18.68 19.95A1 1 0 0 0 20 18.68L14.67 2.68A1 1 0 0 0 13.67 2z" />
    <glyph glyph-name="npm"
      unicode="&#xEAA1;"
      horiz-adv-x="24" d="M0 24H24V0H0V24zM18 21H6A3 3 0 0 1 3 18V6A3 3 0 0 1 6 3H13V13H17V3H18A3 3 0 0 1 21 6V18A3 3 0 0 1 18 21z" />
    <glyph glyph-name="options"
      unicode="&#xEAA2;"
      horiz-adv-x="24" d="M0 24H24V0H0V24zM7 9.82V21A1 1 0 0 1 5 21V9.82A3 3 0 0 1 5 4.18V3A1 1 0 0 1 7 3V4.18A3 3 0 0 1 7 9.82zM21 11A3 3 0 0 1 19 13.82V21A1 1 0 0 1 17 21V13.82A3 3 0 0 1 17 8.18V3A1 1 0 0 1 19 3V8.18A3 3 0 0 1 21 11zM15 19A3 3 0 1 1 11 16.18V3A1 1 0 0 1 13 3V16.18A3 3 0 0 1 15 19z" />
    <glyph glyph-name="options-2"
      unicode="&#xEAA3;"
      horiz-adv-x="24" d="M24 24L24 0L0 0L0 24L24 24zM19 15A3 3 0 0 1 16.18 13H3A1 1 0 0 1 3 11H16.18A3 3 0 1 1 19 15zM3 17H4.18A3 3 0 0 1 9.82 17H21A1 1 0 0 1 21 19H9.82A3 3 0 0 1 4.18 19H3A1 1 0 0 1 3 17zM21 7H13.82A3 3 0 0 1 8.18 7H3A1 1 0 0 1 3 5H8.18A3 3 0 0 1 13.82 5H21A1 1 0 0 1 21 7z" />
    <glyph glyph-name="pantone"
      unicode="&#xEAA4;"
      horiz-adv-x="24" d="M0 24H24V0H0V24zM20 10.82H17.3L15.44 8.82L11.88 5L10.47 3.48L10 3H20A1 1 0 0 1 21 4V9.82A1 1 0 0 1 20 10.82zM18.19 14.7L14.05 18.56A0.8900000000000001 0.8900000000000001 0 0 1 13.34 18.82A1 1 0 0 1 12.64 18.51L11.82 17.62V6.91A5.23 5.23 0 0 0 11.76 6.34L18.24 13.29A1 1 0 0 1 18.19 14.7zM10.82 20A1 1 0 0 1 9.82 21H4A1 1 0 0 1 3 20V6.91A3.9099999999999997 3.9099999999999997 0 0 1 10.82 6.91zM8.82 6.91A1.91 1.91 0 0 0 5 6.91V9H8.82zM8.82 11H5V14H8.82zM8.82 16H5V19H8.82z" />
    <glyph glyph-name="paper-plane"
      unicode="&#xEAA5;"
      horiz-adv-x="24" d="M0 24H24V0H0V24zM21 20A1.31 1.31 0 0 1 20.94 20.27L20.94 20.36A1 1 0 0 1 20.74 20.66A1 1 0 0 1 20.45 20.85L20.36 20.85A0.86 0.86 0 0 1 20.05 21H20A1 1 0 0 1 19.7 21L1.7 15A1 1 0 0 1 1.7 13.1L10.23 10.26L13.07 1.73A1 1 0 0 1 14.97 1.73L20.97 19.73A1 1 0 0 1 21 20zM16.3 17.71L10.73 12.14L5.16 14zM14 5.16L12.14 10.73L17.71 16.3z" />
    <glyph glyph-name="pause-circle"
      unicode="&#xEAA6;"
      horiz-adv-x="24" d="M0 24H24V0H0V24zM12 22A10 10 0 1 1 22 12A10 10 0 0 1 12 22zM10 9A1 1 0 0 0 8 9V15A1 1 0 0 0 10 15zM16 9A1 1 0 0 0 14 9V15A1 1 0 0 0 16 15z" />
    <glyph glyph-name="people"
      unicode="&#xEAA7;"
      horiz-adv-x="24" d="M0 24H24V0H0V24zM9 13A4 4 0 1 1 5 17A4 4 0 0 1 9 13zM17 11A3 3 0 1 1 14 14A3 3 0 0 1 17 11zM21 4A1 1 0 0 1 22 5A5 5 0 0 1 13.94 8.95A7 7 0 0 1 2 4A1 1 0 0 1 3 3H15A1 1 0 0 1 16 4" />
    <glyph glyph-name="percent"
      unicode="&#xEAA8;"
      horiz-adv-x="24" d="M0 24H24V0H0V24zM8 13A3.5 3.5 0 1 1 4.5 16.5A3.5 3.5 0 0 1 8 13zM8 18A1.5 1.5 0 1 0 6.5 16.5A1.5 1.5 0 0 0 8 18zM16 10A3.5 3.5 0 1 1 19.5 6.5A3.5 3.5 0 0 1 16 10zM16 5A1.5 1.5 0 1 0 17.5 6.5A1.5 1.5 0 0 0 16 5zM19.74 19.74A0.8900000000000001 0.8900000000000001 0 0 1 18.48 19.74L4.26 5.52A0.9100000000000001 0.9100000000000001 0 0 1 4 4.89A0.8900000000000001 0.8900000000000001 0 0 1 5.52 4.26L19.74 18.48A0.8900000000000001 0.8900000000000001 0 0 1 19.74 19.74z" />
    <glyph glyph-name="person"
      unicode="&#xEAA9;"
      horiz-adv-x="24" d="M0 24H24V0H0V24zM12 13A4 4 0 1 1 8 17A4 4 0 0 1 12 13zM18 3A1 1 0 0 1 19 4A7 7 0 0 1 5 4A1 1 0 0 1 6 3z" />
    <glyph glyph-name="person-add"
      unicode="&#xEAAA;"
      horiz-adv-x="24" d="M0 24H24V0H0V24zM21 18H20V19A1 1 0 0 1 18 19V18H17A1 1 0 0 1 17 16H18V15A1 1 0 0 1 20 15V16H21A1 1 0 0 1 21 18zM10 13A4 4 0 1 1 6 17A4 4 0 0 1 10 13zM16 3A1 1 0 0 1 17 4A7 7 0 0 1 3 4A1 1 0 0 1 4 3" />
    <glyph glyph-name="person-delete"
      unicode="&#xEAAB;"
      horiz-adv-x="24" d="M0 24H24V0H0V24zM20.47 16.5L21.2 17.23A1 1 0 0 1 19.73 18.7L19 18L18.27 18.73A1 1 0 0 1 16.8 17.23L17.53 16.5L16.8 15.77A1 1 0 0 1 18.27 14.3L19 15L19.73 14.27A1 1 0 0 1 21.2 15.77zM10 13A4 4 0 1 1 6 17A4 4 0 0 1 10 13zM16 3A1 1 0 0 1 17 4A7 7 0 0 1 3 4A1 1 0 0 1 4 3z" />
    <glyph glyph-name="person-done"
      unicode="&#xEAAC;"
      horiz-adv-x="24" d="M0 24H24V0H0V24zM21.66 19.75A1 1 0 0 1 20.25 19.66L18.38 17.51L17.75 18.22A1 1 0 0 1 16.25 16.89L17.64 15.33A1 1 0 0 1 18.39 15H18.39A1 1 0 0 1 19.13 15.34L21.74 18.34A1 1 0 0 1 21.66 19.75zM10 13A4 4 0 1 1 6 17A4 4 0 0 1 10 13zM16 3A1 1 0 0 1 17 4A7 7 0 0 1 3 4A1 1 0 0 1 4 3" />
    <glyph glyph-name="person-remove"
      unicode="&#xEAAD;"
      horiz-adv-x="24" d="M0 24H24V0H0V24zM21 18H17A1 1 0 0 1 17 16H21A1 1 0 0 1 21 18zM10 13A4 4 0 1 1 6 17A4 4 0 0 1 10 13zM16 3A1 1 0 0 1 17 4A7 7 0 0 1 3 4A1 1 0 0 1 4 3" />
    <glyph glyph-name="phone"
      unicode="&#xEAAE;"
      horiz-adv-x="24" d="M0 24H24V0H0V24zM17.4 2A15.419999999999998 15.419999999999998 0 0 0 2 17.4A4.6 4.6 0 0 0 6.6 22A3.9400000000000004 3.9400000000000004 0 0 0 7.37 21.93A3.79 3.79 0 0 0 8.09 21.75A1 1 0 0 0 8.74 21L10.11 15A1 1 0 0 0 9.85 14.08C9.72 13.94 9.71 13.93 8.48 13.29A9.91 9.91 0 0 1 13.35 8.4C14 9.64 14.01 9.65 14.15 9.78A1 1 0 0 0 15.07 10.04L21.07 8.67A1 1 0 0 0 21.79 8.02A4.34 4.34 0 0 0 21.98 7.29A4.77 4.77 0 0 0 22.04 6.53A4.6 4.6 0 0 0 17.4 2z" />
    <glyph glyph-name="phone-call"
      unicode="&#xEAAF;"
      horiz-adv-x="24" d="M0 24H24V0H0V24zM13 16A3 3 0 0 0 16 13A1 1 0 0 1 18 13A5 5 0 0 1 13 18A1 1 0 0 1 13 16zM13 20A7 7 0 0 0 20 13A1 1 0 0 1 22 13A9 9 0 0 1 13 22A1 1 0 0 1 13 20zM21.75 8.09A1 1 0 0 1 21.03 8.74L15.03 10.11A1 1 0 0 1 14.11 9.85C13.97 9.72 13.96 9.71 13.31 8.47A9.91 9.91 0 0 0 8.44 13.36C9.71 14 9.72 14 9.85 14.15A1 1 0 0 1 10.11 15.07L8.74 21A1 1 0 0 1 8.09 21.72A3.79 3.79 0 0 1 7.37 21.9A3.9400000000000004 3.9400000000000004 0 0 1 6.6 22A4.6 4.6 0 0 1 2 17.4A15.419999999999998 15.419999999999998 0 0 1 17.4 2A4.6 4.6 0 0 1 22 6.6A4.77 4.77 0 0 1 21.94 7.36A4.34 4.34 0 0 1 21.75 8.09z" />
    <glyph glyph-name="phone-missed"
      unicode="&#xEAB0;"
      horiz-adv-x="24" d="M0 24H24V0H0V24zM21.94 7.36A4.34 4.34 0 0 1 21.75 8.09A1 1 0 0 1 21.03 8.74L15.03 10.11A1 1 0 0 1 14.11 9.85C13.97 9.72 13.96 9.71 13.31 8.47A10 10 0 0 0 8.43 13.36C9.71 14 9.72 14 9.85 14.15A1 1 0 0 1 10.11 15.07L8.74 21A1 1 0 0 1 8.09 21.72A3.79 3.79 0 0 1 7.37 21.9A3.9400000000000004 3.9400000000000004 0 0 1 6.6 22A4.6 4.6 0 0 1 2 17.4A15.419999999999998 15.419999999999998 0 0 1 17.4 2A4.6 4.6 0 0 1 22 6.6A4.77 4.77 0 0 1 21.94 7.36zM15.8 15.3A1.05 1.05 0 0 1 17.27 15.3L18 16L18.73 15.27A1 1 0 0 1 20.2 16.77L19.47 17.5L20.2 18.23A1 1 0 0 1 18.73 19.7L18 19L17.27 19.73A1 1 0 0 1 15.8 18.23L16.53 17.5L15.8 16.77A1.05 1.05 0 0 1 15.8 15.3z" />
    <glyph glyph-name="phone-off"
      unicode="&#xEAB1;"
      horiz-adv-x="24" d="M0 24H24V0H0V24zM9.27 11.94A10.37 10.37 0 0 0 8.47 13.36C9.71 14 9.72 14 9.85 14.15A1 1 0 0 1 10.11 15.07L8.74 21A1 1 0 0 1 8.09 21.72A3.79 3.79 0 0 1 7.37 21.9A3.9400000000000004 3.9400000000000004 0 0 1 6.6 22A4.6 4.6 0 0 1 2 17.4A15.33 15.33 0 0 1 5.27 7.94zM21.94 7.36A4.34 4.34 0 0 1 21.75 8.09A1 1 0 0 1 21.03 8.74L15.03 10.11A1 1 0 0 1 14.11 9.85C13.97 9.72 13.96 9.71 13.31 8.47A10.88 10.88 0 0 0 11.9 9.27L7.9 5.27A15.33 15.33 0 0 1 17.4 2A4.6 4.6 0 0 1 22 6.6A4.77 4.77 0 0 1 21.94 7.36zM19.74 19.74A0.8900000000000001 0.8900000000000001 0 0 1 18.48 19.74L4.26 5.52A0.9100000000000001 0.9100000000000001 0 0 1 4 4.89A0.8900000000000001 0.8900000000000001 0 0 1 5.52 4.26L19.74 18.48A0.8900000000000001 0.8900000000000001 0 0 1 19.74 19.74z" />
    <glyph glyph-name="pie-chart"
      unicode="&#xEAB2;"
      horiz-adv-x="24" d="M0 24H24V0H0V24zM14.5 13.67H21.17A0.83 0.83 0 0 1 22 14.5A7.5 7.5 0 0 1 14.5 22A0.83 0.83 0 0 1 13.67 21.17V14.5A0.83 0.83 0 0 1 14.5 13.67zM21.08 12H12.93A0.9100000000000001 0.9100000000000001 0 0 0 12.02 12.91V21.08A0.92 0.92 0 0 1 11 22A10 10 0 1 1 22 11A0.92 0.92 0 0 1 21.08 12z" />
    <glyph glyph-name="pie-chart-2"
      unicode="&#xEAB3;"
      horiz-adv-x="24" d="M0 24H24V0H0V24zM14.5 13.67H21.17A0.83 0.83 0 0 1 22 14.5A7.5 7.5 0 0 1 14.5 22A0.83 0.83 0 0 1 13.67 21.17V14.5A0.83 0.83 0 0 1 14.5 13.67zM15.33 20.27A5.83 5.83 0 0 0 20.27 15.33H15.33zM21.08 12H12.93A0.9100000000000001 0.9100000000000001 0 0 0 12.02 12.91V21.08A0.92 0.92 0 0 1 11 22A10 10 0 1 1 22 11A0.92 0.92 0 0 1 21.08 12z" />
    <glyph glyph-name="pin"
      unicode="&#xEAB4;"
      horiz-adv-x="24" d="M0 24H24V0H0V24zM10.5 14.5A1.5 1.5 0 0 1 13.5 14.5A1.5 1.5 0 0 1 10.5 14.5M12 22A8 8 0 0 1 4 14.08C4 8.6 11.05 2.5 11.35 2.24A1 1 0 0 1 12.65 2.24C13 2.5 20 8.6 20 14.08A8 8 0 0 1 12 22zM12 11A3.5 3.5 0 1 0 15.5 14.5A3.5 3.5 0 0 0 12 11z" />
    <glyph glyph-name="play-circle"
      unicode="&#xEAB5;"
      horiz-adv-x="24" d="M0 24H24V0H0V24zM11.5 9.4L14.31 12L11.5 14.6L11.5 9.4zM12 22A10 10 0 1 1 22 12A10 10 0 0 1 12 22zM16 10.82L12.36 7.45A1.7400000000000002 1.7400000000000002 0 0 0 11.2 7A1.68 1.68 0 0 0 10.51 7.15A1.6 1.6 0 0 0 9.51 8.63V15.37A1.6 1.6 0 0 0 10.51 16.85A1.7 1.7 0 0 0 12.36 16.55L16 13.18A1.6 1.6 0 0 0 16 10.82z" />
    <glyph glyph-name="plus"
      unicode="&#xEAB6;"
      horiz-adv-x="24" d="M24 0L0 0L0 24L24 24L24 0zM19 13H13V19A1 1 0 0 1 11 19V13H5A1 1 0 0 1 5 11H11V5A1 1 0 0 1 13 5V11H19A1 1 0 0 1 19 13z" />
    <glyph glyph-name="plus-circle"
      unicode="&#xEAB7;"
      horiz-adv-x="24" d="M0 24H24V0H0V24zM12 22A10 10 0 1 1 22 12A10 10 0 0 1 12 22zM15 11H13V9A1 1 0 0 0 11 9V11H9A1 1 0 0 0 9 13H11V15A1 1 0 0 0 13 15V13H15A1 1 0 0 0 15 11z" />
    <glyph glyph-name="plus-square"
      unicode="&#xEAB8;"
      horiz-adv-x="24" d="M0 24H24V0H0V24zM18 21H6A3 3 0 0 1 3 18V6A3 3 0 0 1 6 3H18A3 3 0 0 1 21 6V18A3 3 0 0 1 18 21zM15 11H13V9A1 1 0 0 0 11 9V11H9A1 1 0 0 0 9 13H11V15A1 1 0 0 0 13 15V13H15A1 1 0 0 0 15 11z" />
    <glyph glyph-name="power"
      unicode="&#xEAB9;"
      horiz-adv-x="24" d="M0 24H24V0H0V24zM12 11A1 1 0 0 1 13 12V22A1 1 0 0 1 11 22V12A1 1 0 0 1 12 11zM16.59 20.89A1 1 0 0 1 15.67 19.11A8 8 0 1 0 8.33 19.11A1 1 0 1 1 7.41 20.89A10 10 0 1 1 16.59 20.89z" />
    <glyph glyph-name="pricetags"
      unicode="&#xEABA;"
      horiz-adv-x="24" d="M0 24H24V0H0V24zM21.47 12.42L15.05 18.83A1 1 0 0 1 14.44 19.12L5.09 20A1 1 0 0 1 4.29 19.71A1 1 0 0 1 4 18.91L4.88 9.56A1 1 0 0 1 5.17 8.95L11.58 2.53A1.84 1.84 0 0 1 12.87 2A1.8200000000000003 1.8200000000000003 0 0 1 14.15 2.53L21.47 9.85A1.8200000000000003 1.8200000000000003 0 0 1 21.47 12.42zM11.56 12.42A1.5 1.5 0 1 0 11.56 14.54A1.49 1.49 0 0 0 11.56 12.44z" />
    <glyph glyph-name="printer"
      unicode="&#xEABB;"
      horiz-adv-x="24" d="M0 24H24V0H0V24zM19.36 17H18V19A1.92 1.92 0 0 1 16.17 21H7.83A1.92 1.92 0 0 1 6 19V17H4.64A2.66 2.66 0 0 1 2 14.33V7.67A2.66 2.66 0 0 1 4.64 5H5.5A2 2 0 0 1 7.5 3H16.5A2 2 0 0 1 18.5 5H19.36A2.66 2.66 0 0 1 22 7.67V14.33A2.66 2.66 0 0 1 19.36 17zM8 19H16V17H8zM7.5 5V9H16.5V5z" />
    <glyph glyph-name="question-mark"
      unicode="&#xEABC;"
      horiz-adv-x="24" d="M24 0L0 0L0 24L24 24L24 0zM17 15A5 5 0 0 1 7 15A1 1 0 0 1 9 15A3 3 0 1 0 12 12A1 1 0 0 1 11 11V9A1 1 0 0 1 13 9V10.1A5 5 0 0 1 17 15zM11 5A1 1 0 0 1 13 5A1 1 0 0 1 11 5" />
    <glyph glyph-name="question-mark-circle"
      unicode="&#xEABD;"
      horiz-adv-x="24" d="M24 0L0 0L0 24L24 24L24 0zM12 22A10 10 0 1 1 22 12A10 10 0 0 1 12 22zM12 6A1 1 0 1 0 13 7A1 1 0 0 0 12 6zM13 11.16V10A1 1 0 0 0 11 10V12A1 1 0 0 0 12 13A1.5 1.5 0 1 1 10.5 14.5A1 1 0 0 0 8.5 14.5A3.5 3.5 0 1 0 13 11.16z" />
    <glyph glyph-name="radio"
      unicode="&#xEABE;"
      horiz-adv-x="24" d="M0 24H24V0H0V24zM12 16A3 3 0 0 1 11 10.17A1 1 0 0 1 11 10V4A1 1 0 0 1 13 4V10A1 1 0 0 1 13 10.17A3 3 0 0 1 12 16zM3.5 13A6.869999999999999 6.869999999999999 0 0 0 6.14 18.23A1 1 0 1 1 4.86 19.77A8.84 8.84 0 0 1 1.5 13A8.84 8.84 0 0 1 4.86 6.23A1 1 0 1 1 6.14 7.77A6.869999999999999 6.869999999999999 0 0 0 3.5 13zM16.64 17.76A1 1 0 0 1 15.36 16.24A4.28 4.28 0 0 0 17 13A4.28 4.28 0 0 0 15.36 9.76A1 1 0 0 1 16 8A1 1 0 0 1 16.64 8.24A6.2 6.2 0 0 1 19 13A6.2 6.2 0 0 1 16.64 17.76zM8.76 17.64A1 1 0 0 1 7.36 17.76A6.2 6.2 0 0 1 5 13A6.2 6.2 0 0 1 7.36 8.24A1 1 0 0 1 8.76 8.36A1 1 0 0 1 8.64 9.76A4.28 4.28 0 0 0 7 13A4.28 4.28 0 0 0 8.64 16.24A1 1 0 0 1 8.76 17.64zM19.14 19.77A1 1 0 1 1 17.86 18.23A6.869999999999999 6.869999999999999 0 0 0 20.5 13A6.869999999999999 6.869999999999999 0 0 0 17.86 7.77A1 1 0 0 1 19.14 6.23A8.84 8.84 0 0 1 22.5 13A8.84 8.84 0 0 1 19.14 19.77z" />
    <glyph glyph-name="radio-button-off"
      unicode="&#xEABF;"
      horiz-adv-x="24" d="M0 24H24V0H0V24zM12 2A10 10 0 1 0 22 12A10 10 0 0 0 12 2zM12 20A8 8 0 1 1 20 12A8 8 0 0 1 12 20z" />
    <glyph glyph-name="radio-button-on"
      unicode="&#xEAC0;"
      horiz-adv-x="24" d="M0 24H24V0H0V24zM12 22A10 10 0 1 1 22 12A10 10 0 0 1 12 22zM12 4A8 8 0 1 0 20 12A8 8 0 0 0 12 4zM12 17A5 5 0 1 1 17 12A5 5 0 0 1 12 17z" />
    <glyph glyph-name="recording"
      unicode="&#xEAC1;"
      horiz-adv-x="24" d="M0 24H24V0H0V24zM18 16A4 4 0 0 1 14 12A3.9099999999999997 3.9099999999999997 0 0 1 14.56 10H9.44A3.9099999999999997 3.9099999999999997 0 0 1 10 12A4 4 0 1 1 6 8H18A4 4 0 0 1 18 16z" />
    <glyph glyph-name="refresh"
      unicode="&#xEAC2;"
      horiz-adv-x="24" d="M0 24H24V0H0V24zM20.3 10.57A1 1 0 0 1 19.05 9.92A7.14 7.14 0 0 0 12.18 5A7.1 7.1 0 0 0 5 12A7.1 7.1 0 0 0 12.18 19A7.26 7.26 0 0 0 16.83 17.33L14.66 17.69A1 1 0 0 1 13.51 16.86A1 1 0 0 1 14.34 15.71L18.58 15.01H18.75A1 1 0 0 1 19.09 15.07A0.33 0.33 0 0 1 19.19 15.13A0.78 0.78 0 0 1 19.39 15.24L19.48 15.35C19.48 15.4 19.57 15.44 19.61 15.5S19.61 15.6 19.66 15.64A1.34 1.34 0 0 1 19.73 15.82L20.48 19.82A1 1 0 0 1 18.48 20.2L18.21 18.75A9.21 9.21 0 0 1 12.18 21A9.1 9.1 0 0 1 3 12A9.1 9.1 0 0 1 12.18 3A9.12 9.12 0 0 1 21 9.32A1 1 0 0 1 20.3 10.57z" />
    <glyph glyph-name="repeat"
      unicode="&#xEAC3;"
      horiz-adv-x="24" d="M0 24H24V0H0V24zM17.91 19H5.91L7.21 20.29A1 1 0 0 1 5.79 21.71L2.79 18.71A1 1 0 0 1 2.79 17.29L5.79 14.29A1 1 0 0 1 7.21 14.29A1 1 0 0 1 7.21 15.71L5.91 17H17.91A1.56 1.56 0 0 0 19.5 15.47V13A1 1 0 0 1 21.5 13V15.47A3.5600000000000005 3.5600000000000005 0 0 1 17.91 19zM18.21 9.71A1 1 0 0 1 16.79 8.29L18.09 7H6.09A1.56 1.56 0 0 0 4.5 8.53V11A1 1 0 0 1 2.5 11V8.53A3.5600000000000005 3.5600000000000005 0 0 1 6.09 5H18.09L16.79 3.71A1 1 0 0 1 16.79 2.29A1 1 0 0 1 18.21 2.29L21.21 5.29A1 1 0 0 1 21.21 6.71z" />
    <glyph glyph-name="rewind-left"
      unicode="&#xEAC4;"
      horiz-adv-x="24" d="M24 0L0 0L0 24L24 24L24 0zM18.45 17.8A2.1 2.1 0 0 1 16.24 17.54L11.5 13.62V16.21A1.7599999999999998 1.7599999999999998 0 0 1 10.45 17.8A2.1 2.1 0 0 1 8.24 17.54L3.14 13.33A1.7 1.7 0 0 1 3.14 10.67L8.24 6.46A2.06 2.06 0 0 1 9.54 6A2.23 2.23 0 0 1 10.45 6.2A1.7599999999999998 1.7599999999999998 0 0 1 11.5 7.79V10.38L16.24 6.46A2.06 2.06 0 0 1 17.54 6A2.23 2.23 0 0 1 18.45 6.2A1.7599999999999998 1.7599999999999998 0 0 1 19.5 7.79V16.21A1.7599999999999998 1.7599999999999998 0 0 1 18.45 17.8z" />
    <glyph glyph-name="rewind-right"
      unicode="&#xEAC5;"
      horiz-adv-x="24" d="M0 24H24V0H0V24zM20.86 13.33L15.76 17.54A2.1 2.1 0 0 1 13.55 17.8A1.7599999999999998 1.7599999999999998 0 0 1 12.5 16.21V13.62L7.76 17.54A2.1 2.1 0 0 1 5.55 17.8A1.7599999999999998 1.7599999999999998 0 0 1 4.55 16.21V7.79A1.7599999999999998 1.7599999999999998 0 0 1 5.55 6.2A2.23 2.23 0 0 1 6.46 6A2.06 2.06 0 0 1 7.76 6.46L12.5 10.38V7.79A1.7599999999999998 1.7599999999999998 0 0 1 13.55 6.2A2.23 2.23 0 0 1 14.46 6A2.06 2.06 0 0 1 15.76 6.46L20.86 10.67A1.7 1.7 0 0 1 20.86 13.33z" />
    <glyph glyph-name="save"
      unicode="&#xEAC6;"
      horiz-adv-x="24" d="M0 24H24V0H0V24zM10 7H14V3H10V7zM20.12 15.29L15.29 20.12A3 3 0 0 1 13.17 21H10V15H15A1 1 0 0 0 15 13H9A1 1 0 0 0 8 14V21H6A3 3 0 0 1 3 18V6A3 3 0 0 1 6 3H8V7A2 2 0 0 0 10 9H14A2 2 0 0 0 16 7V3H18A3 3 0 0 1 21 6V13.17A3 3 0 0 1 20.12 15.29z" />
    <glyph glyph-name="scissors"
      unicode="&#xEAC7;"
      horiz-adv-x="24" d="M0 24H24V0H0V24zM20.21 18.29A1 1 0 1 1 18.79 19.71L12.51 13.4L9.21 16.71H9.21A3 3 0 0 1 9.5 18A3 3 0 1 1 6.5 15A3 3 0 0 1 7.79 15.3H7.79L11.1 12L7.81 8.7A3 3 0 0 1 6.5 9A3 3 0 1 1 9.5 6A3 3 0 0 1 9.21 7.26zM6.5 17A1 1 0 1 0 7.5 18A1 1 0 0 0 6.5 17zM6.5 5A1 1 0 1 0 7.5 6A1 1 0 0 0 6.5 5zM15.21 10.71A1 1 0 0 1 13.79 9.29L18.79 4.29A1 1 0 0 1 20.21 4.29A1 1 0 0 1 20.21 5.71z" />
    <glyph glyph-name="search"
      unicode="&#xEAC8;"
      horiz-adv-x="24" d="M0 24H24V0H0V24zM20.71 4.71L17.31 8.1A7.92 7.92 0 0 1 19 13A8 8 0 1 1 11 5A7.92 7.92 0 0 1 15.9 6.69L19.29 3.29A1 1 0 0 1 20.71 3.29A1 1 0 0 1 20.71 4.71zM5 13A6 6 0 1 0 11 7A6 6 0 0 0 5 13z" />
    <glyph glyph-name="settings"
      unicode="&#xEAC9;"
      horiz-adv-x="24" d="M0 24H24V0H0V24zM10.5 12A1.5 1.5 0 0 1 13.5 12A1.5 1.5 0 0 1 10.5 12M21.89 13.68L21.1 16.2A2.26 2.26 0 0 1 18.22 17.71L17.88 17.6A1.7400000000000002 1.7400000000000002 0 0 0 16.29 17.86L16.18 17.94A1.7599999999999998 1.7599999999999998 0 0 0 15.49 19.37V19.65A2.37 2.37 0 0 1 14.81 21.33A2.26 2.26 0 0 1 13.21 22H10.66A2.32 2.32 0 0 1 8.37 19.67V19.43A1.9399999999999997 1.9399999999999997 0 0 0 7.64 17.92L7.51 17.82A1.9300000000000002 1.9300000000000002 0 0 0 5.73 17.53A2.14 2.14 0 0 1 4.05 17.41A2.18 2.18 0 0 1 2.93 16.08L2.11 13.48A2.34 2.34 0 0 1 3.59 10.54L3.75 10.54H3.75A1.8300000000000003 1.8300000000000003 0 0 0 4.87 9.32L4.93 9.16A2.06 2.06 0 0 0 4.7 7.3A2.37 2.37 0 0 1 5.19 4L7.26 2.43A2.25 2.25 0 0 1 8.61 2A2 2 0 0 1 9 2A2.25 2.25 0 0 1 10.47 3L10.7 3.33A1.7999999999999998 1.7999999999999998 0 0 0 12.13 4.1A1.75 1.75 0 0 0 13.63 3.32L13.75 3.15A2.24 2.24 0 0 1 16.97 2.62L19 4.14A2.38 2.38 0 0 1 19.5 7.37L19.24 7.75A2 2 0 0 0 19 9.4A1.8900000000000001 1.8900000000000001 0 0 0 20.21 10.68L20.41 10.75A2.36 2.36 0 0 1 21.89 13.68zM12 8.5A3.5 3.5 0 1 0 15.5 12A3.5 3.5 0 0 0 12 8.5z" />
    <glyph glyph-name="settings-2"
      unicode="&#xEACA;"
      horiz-adv-x="24" d="M24 0L0 0L0 24L24 24L24 0zM10.5 12A1.5 1.5 0 0 1 13.5 12A1.5 1.5 0 0 1 10.5 12M20.32 14.63H19.23C19.09 14.63 18.99 14.74 18.93 14.89A0.34 0.34 0 0 0 18.93 15.26L19.74 16A1.63 1.63 0 0 1 20.24 17.18A1.67 1.67 0 0 1 19.74 18.37L18.4 19.74A1.67 1.67 0 0 1 16.03 19.74L15.26 19A0.38000000000000006 0.38000000000000006 0 0 0 14.85 19A0.34 0.34 0 0 0 14.63 19.29V20.32A1.68 1.68 0 0 1 13 22H11.06A1.69 1.69 0 0 1 9.37 20.32V19.23C9.37 19.09 9.26 18.99 9.11 18.93A0.34 0.34 0 0 0 8.74 18.93L8 19.74A1.72 1.72 0 0 1 6.81 20.24H6.81A1.65 1.65 0 0 1 5.63 19.74L4.26 18.4A1.67 1.67 0 0 1 4.26 16L5 15.26A0.38000000000000006 0.38000000000000006 0 0 0 5 14.85A0.34 0.34 0 0 0 4.71 14.63H3.68A1.68 1.68 0 0 1 2 12.95V11.06A1.69 1.69 0 0 1 3.68 9.37H4.77C4.91 9.37 5.01 9.26 5.07 9.11A0.34 0.34 0 0 0 5.07 8.74L4.26 8A1.72 1.72 0 0 1 3.76 6.81A1.66 1.66 0 0 1 4.26 5.62L5.6 4.26A1.67 1.67 0 0 1 7.97 4.26L8.74 5A0.38000000000000006 0.38000000000000006 0 0 0 9.15 5A0.34 0.34 0 0 0 9.37 4.71V3.62A1.68 1.68 0 0 1 11.05 2H12.94A1.69 1.69 0 0 1 14.63 3.68V4.77C14.63 4.91 14.74 5.01 14.89 5.07A0.34 0.34 0 0 0 15.26 5.07L16.02 4.3A1.72 1.72 0 0 1 17.21 3.8H17.21A1.65 1.65 0 0 1 18.39 4.3L19.73 5.64A1.67 1.67 0 0 1 19.73 8.01L19 8.74A0.34 0.34 0 0 0 19 9.11V9.11A0.34 0.34 0 0 0 19.29 9.33H20.38A1.68 1.68 0 0 1 22 11V12.94A1.69 1.69 0 0 1 20.32 14.63zM12 8.5A3.5 3.5 0 1 0 15.5 12A3.5 3.5 0 0 0 12 8.5z" />
    <glyph glyph-name="shake"
      unicode="&#xEACB;"
      horiz-adv-x="24" d="M0 24H24V0H0V24zM5.5 6A1 1 0 0 0 4.86 6.24A8.81 8.81 0 0 0 1.5 13A8.81 8.81 0 0 0 4.86 19.76A1 1 0 1 0 6.14 18.24A6.8999999999999995 6.8999999999999995 0 0 1 3.5 13A6.8999999999999995 6.8999999999999995 0 0 1 6.14 7.76A1 1 0 0 0 6.27 6.36A1 1 0 0 0 5.5 6zM12 17A4.09 4.09 0 0 0 13 16.86V21A1 1 0 0 1 11 21V16.86A4.09 4.09 0 0 0 12 17zM12 9A4.09 4.09 0 0 0 11 9.14V4A1 1 0 0 1 13 4V9.14A4.09 4.09 0 0 0 12 9zM16 8A1 1 0 0 0 15.23 8.36A1 1 0 0 0 15.36 9.76A4.28 4.28 0 0 1 17 13A4.28 4.28 0 0 1 15.36 16.24A1 1 0 1 0 16.64 17.76A6.2 6.2 0 0 0 19 13A6.2 6.2 0 0 0 16.64 8.24A1 1 0 0 0 16 8zM8 8A1 1 0 0 0 7.36 8.24A6.2 6.2 0 0 0 5 13A6.2 6.2 0 0 0 7.36 17.76A1 1 0 1 0 8.64 16.24A4.28 4.28 0 0 1 7 13A4.28 4.28 0 0 1 8.64 9.76A1 1 0 0 0 8.77 8.36A1 1 0 0 0 8 8zM18.5 6A1 1 0 0 0 17.73 6.36A1 1 0 0 0 17.86 7.76A6.8999999999999995 6.8999999999999995 0 0 1 20.5 13A6.8999999999999995 6.8999999999999995 0 0 1 17.86 18.24A1 1 0 1 0 19.14 19.76A8.81 8.81 0 0 0 22.5 13A8.81 8.81 0 0 0 19.14 6.24A1 1 0 0 0 18.5 6zM12 12A1 1 0 1 0 13 13A1 1 0 0 0 12 12zM12 13zM12 13zM12 13zM12 13zM12 13zM12 13zM12 13z" />
    <glyph glyph-name="share"
      unicode="&#xEACC;"
      horiz-adv-x="24" d="M0 24H24V0H0V24zM18 9A3 3 0 0 1 15.9 8.14L8 11.66C8 11.78 8 11.88 8 12S8 12.22 8 12.33L15.9 15.86A3 3 0 1 1 15 18C15 17.88 15 17.78 15 17.66L7.1 14.14A3 3 0 1 1 7.1 9.86L15 6.33C15 6.22 15 6.11 15 6A3 3 0 1 1 18 9z" />
    <glyph glyph-name="shield"
      unicode="&#xEACD;"
      horiz-adv-x="24" d="M0 24H24V0H0V24zM12 2.15A2 2 0 0 0 11 2.4L10.7 2.57A15.169999999999998 15.169999999999998 0 0 0 3 15.77V15.91A2 2 0 0 0 4 17.66L11 21.6A2 2 0 0 0 13 21.6L20 17.66A2 2 0 0 0 21 15.91V15.77A15.169999999999998 15.169999999999998 0 0 0 13.28 2.57L12.98 2.4A2 2 0 0 0 12 2.15z" />
    <glyph glyph-name="shield-off"
      unicode="&#xEACE;"
      horiz-adv-x="24" d="M0 24H24V0H0V24zM3.73 17.44A2 2 0 0 1 3 15.91V15.77A15.169999999999998 15.169999999999998 0 0 1 10.72 2.57L11.02 2.4A2 2 0 0 1 13.02 2.4L13.32 2.57A15.219999999999999 15.219999999999999 0 0 1 16.32 4.84zM18.84 8A15.079999999999998 15.079999999999998 0 0 1 21 15.77V15.91A2 2 0 0 1 20 17.66L13 21.6A2 2 0 0 1 11 21.6L7.32 19.51zM4.71 20.71A1 1 0 0 1 3.29 19.29L19.29 3.29A1 1 0 0 1 20.71 3.29A1 1 0 0 1 20.71 4.71z" />
    <glyph glyph-name="shopping-bag"
      unicode="&#xEACF;"
      horiz-adv-x="24" d="M0 24H24V0H0V24zM20.12 17.29L17.29 20.12A3 3 0 0 1 15.17 21H8.83A3 3 0 0 1 6.71 20.12L3.88 17.29A3 3 0 0 1 3 15.17V6A3 3 0 0 1 6 3H18A3 3 0 0 1 21 6V15.17A3 3 0 0 1 20.12 17.29zM12 8A4 4 0 0 0 8 12A1 1 0 0 0 10 12A2 2 0 0 1 14 12A1 1 0 0 0 16 12A4 4 0 0 0 12 8zM6.41 17L8.12 18.71A1.05 1.05 0 0 0 8.83 19H15.17A1.05 1.05 0 0 0 15.88 18.71L17.59 17z" />
    <glyph glyph-name="shopping-cart"
      unicode="&#xEAD0;"
      horiz-adv-x="24" d="M0 24H24V0H0V24zM21.08 17A2 2 0 0 1 19.38 18H6.58L6 20.26A1 1 0 0 1 5 21H3A1 1 0 0 1 3 19H4.24L7 8.74A1 1 0 0 1 8 8H17A1 1 0 0 1 17.89 8.55L21.17 15.11A2 2 0 0 1 21.08 17zM6 4.5A1.5 1.5 0 0 1 9 4.5A1.5 1.5 0 0 1 6 4.5M16 4.5A1.5 1.5 0 0 1 19 4.5A1.5 1.5 0 0 1 16 4.5" />
    <glyph glyph-name="shuffle"
      unicode="&#xEAD1;"
      horiz-adv-x="24" d="M24 0L0 0L0 24L24 24L24 0zM18 14.69A1 1 0 0 1 19 13.69H19A1 1 0 0 1 20 14.69V19A1 1 0 0 1 19 20L14.7 20A1 1 0 0 1 13.7 19A1 1 0 0 1 14.7 18H16.59L12 13.41L6.16 19.24A1 1 0 0 1 4.75 17.83L10.58 12L4.29 5.71A1 1 0 0 1 4.29 4.29A1 1 0 0 1 5.71 4.29L18 16.58zM19 10.32H19A1 1 0 0 1 18 9.32V7.41L15.22 10.2A1 1 0 0 1 13.8 8.78L16.57 6H14.69A1 1 0 0 1 14.69 4H18.92L19 4A1 1 0 0 1 20 5.11L20 9.32A1 1 0 0 1 19 10.32z" />
    <glyph glyph-name="shuffle-2"
      unicode="&#xEAD2;"
      horiz-adv-x="24" d="M24 0L0 0L0 24L24 24L24 0zM18.71 9.71A1 1 0 0 1 17.29 8.29L17.58 8H16A4 4 0 0 0 16 16H17.59L17.29 15.71A1 1 0 0 1 17.29 14.29A1 1 0 0 1 18 14A1 1 0 0 1 18.71 14.29L20.71 16.29A1 1 0 0 1 21 17A1 1 0 0 1 20.71 17.71L18.71 19.71A1 1 0 0 1 17.29 18.29L17.58 18H16A6 6 0 0 1 11 15.31A6 6 0 0 1 6 18H4A1 1 0 0 1 4 16H6A4 4 0 0 0 6 8H4A1 1 0 0 1 4 6H6A6 6 0 0 1 11 8.69A6 6 0 0 1 16 6H17.59L17.29 5.71A1 1 0 0 1 17.29 4.29A1 1 0 0 1 18 4A1 1 0 0 1 18.71 4.29L20.71 6.29A1 1 0 0 1 21 7A1 1 0 0 1 20.71 7.71z" />
    <glyph glyph-name="skip-back"
      unicode="&#xEAD3;"
      horiz-adv-x="24" d="M24 0L0 0L0 24L24 24L24 0zM16.45 17.8A2.1 2.1 0 0 1 14.24 17.54L9.14 13.33L9 13.18V17A1 1 0 0 1 7 17V7A1 1 0 0 1 9 7V10.82L9.14 10.67L14.24 6.46A2.06 2.06 0 0 1 15.54 6A2.23 2.23 0 0 1 16.45 6.2A1.7599999999999998 1.7599999999999998 0 0 1 17.5 7.79V16.21A1.7599999999999998 1.7599999999999998 0 0 1 16.45 17.8z" />
    <glyph glyph-name="skip-forward"
      unicode="&#xEAD4;"
      horiz-adv-x="24" d="M0 24H24V0H0V24zM16 18A1 1 0 0 1 15 17V13.18L14.86 13.33L9.76 17.54A2.1 2.1 0 0 1 7.55 17.8A1.7599999999999998 1.7599999999999998 0 0 1 6.55 16.21V7.79A1.7599999999999998 1.7599999999999998 0 0 1 7.55 6.2A2.23 2.23 0 0 1 8.46 6A2.06 2.06 0 0 1 9.76 6.46L14.86 10.67L15 10.82V7A1 1 0 0 1 17 7V17A1 1 0 0 1 16 18z" />
    <glyph glyph-name="slash"
      unicode="&#xEAD5;"
      horiz-adv-x="24" d="M0 24H24V0H0V24zM12 22A10 10 0 1 1 22 12A10 10 0 0 1 12 22zM20 12A7.92 7.92 0 0 0 18.31 7.1L7.1 18.31A7.92 7.92 0 0 0 12 20A8 8 0 0 0 20 12zM4 12A7.92 7.92 0 0 0 5.69 16.9L16.9 5.69A7.92 7.92 0 0 0 12 4A8 8 0 0 0 4 12z" />
    <glyph glyph-name="smartphone"
      unicode="&#xEAD6;"
      horiz-adv-x="24" d="M24 24L24 0L0 0L0 24L24 24zM17 22H7A3 3 0 0 1 4 19V5A3 3 0 0 1 7 2H17A3 3 0 0 1 20 5V19A3 3 0 0 1 17 22zM12 6A1.5 1.5 0 1 0 13.5 7.5A1.5 1.5 0 0 0 12 6zM14.5 16H9.5A1 1 0 0 0 9.5 18H14.5A1 1 0 0 0 14.5 16z" />
    <glyph glyph-name="speaker"
      unicode="&#xEAD7;"
      horiz-adv-x="24" d="M24 24L24 0L0 0L0 24L24 24zM10.5 8.5A1.5 1.5 0 0 1 13.5 8.5A1.5 1.5 0 0 1 10.5 8.5M11 16A1 1 0 0 1 13 16A1 1 0 0 1 11 16M17 22H7A3 3 0 0 1 4 19V5A3 3 0 0 1 7 2H17A3 3 0 0 1 20 5V19A3 3 0 0 1 17 22zM12 19A3 3 0 1 0 9 16A3 3 0 0 0 12 19zM12 5A3.5 3.5 0 1 0 15.5 8.5A3.5 3.5 0 0 0 12 5z" />
    <glyph glyph-name="square"
      unicode="&#xEAD8;"
      horiz-adv-x="24" d="M0 24H24V0H0V24zM18 3H6A3 3 0 0 0 3 6V18A3 3 0 0 0 6 21H18A3 3 0 0 0 21 18V6A3 3 0 0 0 18 3zM6 19A1 1 0 0 1 5 18V6A1 1 0 0 1 6 5H18A1 1 0 0 1 19 6V18A1 1 0 0 1 18 19z" />
    <glyph glyph-name="star"
      unicode="&#xEAD9;"
      horiz-adv-x="24" d="M24 24L24 0L0 0L0 24L24 24zM17.56 3A1 1 0 0 0 17.1 3.11L12 5.78L6.9 3.11A1 1 0 0 0 5.45 4.17L6.45 9.8L2.33 13.8A1 1 0 0 0 2.08 14.8A1 1 0 0 0 2.89 15.48L8.59 16.31L11.1 21.44A1 1 0 0 0 12.9 21.44L15.44 16.32L21.14 15.49A1 1 0 0 0 21.95 14.81A1 1 0 0 0 21.7 13.81L17.58 9.81L18.58 4.18A1 1 0 0 0 18.18 3.18A1 1 0 0 0 17.56 3z" />
    <glyph glyph-name="stop-circle"
      unicode="&#xEADA;"
      horiz-adv-x="24" d="M0 24H24V0H0V24zM12 22A10 10 0 1 1 22 12A10 10 0 0 1 12 22zM16 9.25A1.25 1.25 0 0 0 14.75 8H9.25A1.25 1.25 0 0 0 8 9.25V14.75A1.25 1.25 0 0 0 9.25 16H14.75A1.25 1.25 0 0 0 16 14.75zM10 14H14V10H10V14z" />
    <glyph glyph-name="sun"
      unicode="&#xEADB;"
      horiz-adv-x="24" d="M24 0L0 0L0 24L24 24L24 0zM12 18A1 1 0 0 1 13 19V21A1 1 0 0 1 11 21V19A1 1 0 0 1 12 18zM21 13H19A1 1 0 0 1 19 11H21A1 1 0 0 1 21 13zM6 12A1 1 0 0 1 5 13H3A1 1 0 0 1 3 11H5A1 1 0 0 1 6 12zM6.22 19A1 1 0 0 1 4.83 17.53L6.27 16.14A1 1 0 0 1 7 15.86A1 1 0 0 1 7.72 16.17A1 1 0 0 1 7.72 17.58zM17 15.86A1 1 0 0 1 17.69 16.14L19.13 17.53A1 1 0 0 1 17.78 19L16.34 17.58A1 1 0 0 1 16.34 16.17A1 1 0 0 1 17 15.86zM12 6A1 1 0 0 1 11 5V3A1 1 0 0 1 13 3V5A1 1 0 0 1 12 6zM17.73 7.86A1 1 0 0 1 16.34 6.42L17.78 5A1 1 0 0 1 18.47 4.72A1 1 0 0 1 19.19 5.02A1 1 0 0 1 19.19 6.44zM6.27 7.86L4.83 6.47A1 1 0 0 1 4.83 5.05A1 1 0 0 1 5.55 4.75A1 1 0 0 1 6.22 5L7.66 6.39A1 1 0 0 1 6.27 7.83zM12 16A4 4 0 1 1 16 12A4 4 0 0 1 12 16z" />
    <glyph glyph-name="swap"
      unicode="&#xEADC;"
      horiz-adv-x="24" d="M0 0L0 24L24 24L24 0L0 0zM4 15H17L15.4 13.8A1 1 0 0 1 15.2 12.4A1 1 0 0 1 16 12A1 1 0 0 1 16.6 12.2L20.6 15.2A1 1 0 0 1 20.6 16.79L16.74 19.79A1 1 0 0 1 15.51 18.21L17.08 17H4A1 1 0 0 1 4 15zM20 8H7L8.6 9.2A1 1 0 0 1 7.4 10.8L3.4 7.8A1 1 0 0 1 3.4 6.21L7.26 3.21A1 1 0 0 1 7.87 3A1 1 0 0 1 8.66 3.39A1 1 0 0 1 8.49 4.79L6.92 6H20A1 1 0 0 1 20 8z" />
    <glyph glyph-name="sync"
      unicode="&#xEADD;"
      horiz-adv-x="24" d="M0 24H24V0H0V24zM21.66 13.63A0.62 0.62 0 0 1 21.73 13.82L22.48 17.82A1 1 0 0 1 20.48 18.18L20.11 16.18A9.22 9.22 0 0 1 3.53 15.34A1 1 0 0 1 4.08 14.04A1 1 0 0 1 5.39 14.59A7.08 7.08 0 0 0 12.07 19A7.17 7.17 0 0 0 18.31 15.42L16.66 15.69A1 1 0 1 1 16.34 13.69L20.59 12.98H20.75A0.93 0.93 0 0 1 21.09 13.04A0.33 0.33 0 0 1 21.19 13.1A0.78 0.78 0 0 1 21.39 13.21L21.47 13.31A1.07 1.07 0 0 1 21.61 13.47A0.58 0.58 0 0 1 21.66 13.63zM19.88 9.93A1 1 0 0 1 18.57 9.37A7.08 7.08 0 0 0 11.93 5A7.17 7.17 0 0 0 5.69 8.58L7.34 8.31L7.5 8.31A1 1 0 0 1 7.66 10.31L3.41 11A0.9100000000000001 0.9100000000000001 0 0 1 3.08 11H3A1.15 1.15 0 0 1 2.68 10.86L2.68 10.86A1 1 0 0 1 2.5 10.68L2.41 10.58A0.84 0.84 0 0 1 2.34 10.39A0.43999999999999995 0.43999999999999995 0 0 1 2.27 10.22L1.52 6.22A1 1 0 0 1 2.32 5L2.5 5A1 1 0 0 1 3.5 5.82L3.87 7.82A9.22 9.22 0 0 1 20.45 8.65A1 1 0 0 1 19.88 9.93z" />
    <glyph glyph-name="text"
      unicode="&#xEADE;"
      horiz-adv-x="24" d="M0 24H24V0H0V24zM20 20H4A1 1 0 0 1 3 19V16A1 1 0 0 1 5 16V18H11V5H9A1 1 0 0 1 9 3H15A1 1 0 0 1 15 5H13V18H19V16A1 1 0 0 1 21 16V19A1 1 0 0 1 20 20z" />
    <glyph glyph-name="thermometer"
      unicode="&#xEADF;"
      horiz-adv-x="24" d="M0 24H24V0H0V24zM12 2A5 5 0 0 0 9 11V19A3 3 0 0 0 12 22A3 3 0 0 0 15 19V11A5 5 0 0 0 12 2zM13 14.46V19A0.93 0.93 0 0 1 12.71 19.69A1 1 0 0 1 12 20A1 1 0 0 1 11 19V14.46z" />
    <glyph glyph-name="thermometer-minus"
      unicode="&#xEAE0;"
      horiz-adv-x="24" d="M0 24H24V0H0V24zM3 19H7A1 1 0 0 0 8 18V18A1 1 0 0 0 7 17H3A1 1 0 0 0 2 18V18A1 1 0 0 0 3 19zM14 2A5 5 0 0 0 11 11V19A3 3 0 0 0 14 22A3 3 0 0 0 17 19V11A5 5 0 0 0 14 2zM15 14.46V19A0.93 0.93 0 0 1 14.71 19.69A1 1 0 0 1 14 20A1 1 0 0 1 13 19V14.46z" />
    </font>
</defs>
</svg>
